Путь / The Gateway (2021) WEB-DLRip [H.264/1080p-LQ] [MVO, AD]

Ответить на тему
 
Автор Сообщение

admin ®

Пол: Не указан

Стаж: 6 месяца 22 дня

Сообщений: 11520

Создавать темы 30-Янв-2024 14:28

[Цитировать]

Путь / The Gateway (2021) WEB-DLRip [H.264/1080p-LQ] - Производство: США / Metalwork Pictures
Жанр: криминал, драма, триллер
Режиссер: Микеле Чиветта
Продюсер: Stephen Israel, Эндрю Левитас, Кеннет Олтмэн
Актеры: Шей Уигэм, Фрэнк Грилло, Оливия Манн, Тэрин Мэннинг, Кит Дэвид, Брюс Дерн, Марк Бун Джуниор, Тэджен Бёрнс, Александр Рэйт, Зак Эйвери
Описание:
Социальный работник, которому поручено заботиться о дочери матери-одиночки, вмешивается, когда отец возвращается из тюрьмы, и заманивает их в преступную жизнь.
Рейтинг MPAA: R (лицам до 17 лет обязательно присутствие взрослого)
Дата мировой премьеры: 3 сентября 2021
Релиз от: Anrif
Продолжительность: 01:30:21
Качество видео: WEB-DLRip
Перевод: Любительский многоголосый (AlphaProject)
Язык озвучки: Русский
Субтитры: Отсутствуют
Реклама: Присутствует баннер!
Видео: AVC/H.264, 1920х960, ~12.9 Mbps
Аудио: AС-3, 2 ch, 320 kbps - Русский

MediaInfo:

Общее
Уникальный идентификатор : 224408872728751927277714467125047410843 (0xA8D393A7AFD772413492C21EEBB9409B)
Полное имя : F:\[Anf]_The Gateway_(2021)_WEB-DLRip_[1080p-LQ].mkv
Формат : Matroska
Версия формата : Version 4
Размер файла : 8,37 Гбайт
Продолжительность : 1 ч. 30 м.
Режим общего битрейта : Постоянный
Общий поток : 13,3 Мбит/сек
Название фильма : The Gateway_(2021)
Дата кодирования : UTC 2021-08-29 23:36:07
Программа кодирования : mkvmerge v50.0.0 ('Awakenings') 64-bit
Библиотека кодирования : libebml v1.4.0 + libmatroska v1.6.2
Видео
Идентификатор : 1
Формат : AVC
Формат/Информация : Advanced Video Codec
Профиль формата : High@L4.1
Настройки формата : CABAC / 4 Ref Frames
Параметр CABAC формата : Да
Параметр RefFrames формата : 4 кадра
Идентификатор кодека : V_MPEG4/ISO/AVC
Продолжительность : 1 ч. 30 м.
Вид битрейта : Постоянный
Битрейт : 12,9 Мбит/сек
Номинальный битрейт : 15,0 Мбит/сек
Ширина : 1 920 пикселей
Высота : 960 пикселей
Соотношение сторон : 2,000
Режим частоты кадров : Постоянный
Частота кадров : 23,976 (24000/1001) кадра/сек
Стандарт вещания : Component
Цветовое пространство : YUV
Субдискретизация насыщенности : 4:2:0
Битовая глубина : 8 бит
Тип развёртки : Прогрессивная
Бит/(Пиксели*Кадры) : 0.293
Размер потока : 8,17 Гбайт (98%)
Заголовок : Anrif
Язык : English
Default : Да
Forced : Нет
Цветовой диапазон : Limited
Основные цвета : BT.709
Характеристики трансфера : BT.709
Коэффициенты матрицы : BT.709
Аудио
Идентификатор : 2
Формат : AC-3
Формат/Информация : Audio Coding 3
Коммерческое название : Dolby Digital
Идентификатор кодека : A_AC3
Продолжительность : 1 ч. 30 м.
Вид битрейта : Постоянный
Битрейт : 320 Кбит/сек
Каналы : 2 канала
Channel layout : L R
Частота : 48,0 КГц
Частота кадров : 31,250 кадров/сек (1536 SPF)
Метод сжатия : С потерями
Размер потока : 207 Мбайт (2%)
Заголовок : (MVO - AlphaProject)
Язык : Russian
Service kind : Complete Main
Default : Да
Forced : Нет
Скриншоты: Все одноименные релизы в Клубе Время раздачи: с 18:00 до 24:00 (до первых 3-5 скачавших)
[Профиль] [ЛС]
Показать сообщения:    
Ответить на тему

Текущее время: 20-Апр 19:00

Часовой пояс: UTC ± 0



Вы не можете начинать темы
Вы не можете отвечать на сообщения
Вы не можете редактировать свои сообщения
Вы не можете удалять свои сообщения
Вы не можете голосовать в опросах
Вы не можете прикреплять файлы к сообщениям
Вы не можете скачивать файлы

[  Время выполнения: 0,044 сек  |  MySQL: 0,004 сек (10%) · 5 запр.  |  GZIP выкл  |  Память: 422,29 KB / 1,73 MB / 1,34 MB  |  Лимит: 18 16 14  ]