Любовь как букет цветов / Hanataba mitaina koi o shita / I Fell in Love Like a Flower Bouquet / We Made a Beautiful Bouquet (2021) HDRip [DVO]

Ответить на тему
 
Автор Сообщение

admin ®

Пол: Не указан

Стаж: 4 месяца 23 дня

Сообщений: 10110

Создавать темы 30-Янв-2024 14:27

[Цитировать]

Любовь как букет цветов / Hanataba mitaina koi o shita / I Fell in Love Like a Flower Bouquet / We Made a Beautiful Bouquet (2021) HDRip - Производство: Япония, Tokyo Theatres, Little More
Жанр: мелодрама
Режиссер: Нобухиро Дои
Продюсер: Томоо Цутии, Такатоси Аруга
Актеры: Кэйко Тода, Каору Кобаяси, Каната Хосода, Джо Одагири, Рё Ивамацу, Кая Киёхара, Мамору Осии
Описание:
22-летние студенты Муги Яманэ (Суда Масаки) и Хатия Кину (Аримура Касуми) встретились случайно, когда опоздали на последний поезд на одной из станций. Они влюбились друг в друга с первого взгляда, окончили колледж и начали жить вместе, работая по совместительству. Однако, когда Муги устроился на работу, и ритм жизни изменился, их чувства подверглись испытаниям.
Дата мировой премьеры: 29 января 2021
Дата российской премьеры: 29 января 2021
Релиз от: АрхиAsia
Продолжительность: 02:03:26
Качество видео: HDRip
Перевод: Двуголосый любительский (АрхиAsia)
Субтитры: отсутствуют
Реклама: Видеоряд содержит в верхнем правом углу логотип РГ АрхиAsia
Видео: Xvid, 720x384, ~1497 kbps
Аудио: AC3, 2 ch, 192 kbps | Русский (DVO, АрхиAsia)

MediaInfo:

Общее
Полное имя : C:\distrib\Lyubov.kak.buket.cvetov.2021.WEB-DLRip.avi
Формат : AVI
Формат/Информация : Audio Video Interleave
Размер файла : 1,46 Гбайт
Продолжительность : 2 ч. 3 м.
Общий поток : 1 698 Кбит/сек
Название фильма : Любовь как букет цветов / Hanataba mitaina koi o shita / Loved Like a Flower Bouquet / We Made a Beautiful Bouquet (2021) WEB-DLRip
Режиссёр : Нобухиро Дои / Nobuhiro Doi
Жанр : мелодрама
Программа кодирования : VirtualDubMod 1.5.10.2 (build 2542/release)
Формат оригинала/Имя : Художественный фильм
Авторское право : Япония, Tokyo Theatres, Little More
Примечание : Rip by vitolinform
Видео
Идентификатор : 0
Формат : MPEG-4 Visual
Профиль формата : Advanced Simple@L5
Настройки формата : BVOP1 / Custom Matrix
Параметр BVOP формата : 1
Параметр QPel формата : Нет
Параметр GMC формата : Без точки перехода
Параметр матрицы формата : Выборочная
Идентификатор кодека : XVID
Идентификатор кодека/Подсказка : XviD
Продолжительность : 2 ч. 3 м.
Битрейт : 1 497 Кбит/сек
Ширина : 720 пикселей
Высота : 384 пикселя
Соотношение сторон : 1,85:1
Частота кадров : 23,976 (24000/1001) кадра/сек
Цветовое пространство : YUV
Субдискретизация насыщенности : 4:2:0
Битовая глубина : 8 бит
Тип развёртки : Прогрессивная
Метод сжатия : С потерями
Бит/(Пиксели*Кадры) : 0.226
Размер потока : 1,29 Гбайт (88%)
Библиотека кодирования : XviD 67
Аудио
Идентификатор : 1
Формат : AC-3
Формат/Информация : Audio Coding 3
Коммерческое название : Dolby Digital
Идентификатор кодека : 2000
Продолжительность : 2 ч. 3 м.
Вид битрейта : Постоянный
Битрейт : 192 Кбит/сек
Каналы : 2 канала
Channel layout : L R
Частота : 48,0 КГц
Частота кадров : 31,250 кадров/сек (1536 SPF)
Метод сжатия : С потерями
Размер потока : 170 Мбайт (11%)
Выравнивание : Разделение по промежуткам
Продолжительность промежутка : 42 мс. (1,00 видеокадр)
Время предзагрузки промежутка : 500 мс.
Заголовок : Russian (DVO, АрхиAsia)
Service kind : Complete Main

Дополнительная информация:

Переведено и озвучено: РГ АрхиAsia
Перевод: greenlight_gik
Редакция, тайминг: Macho
Озвучивали: Veda, Datfeel
Реклама: Видеоряд содержит в верхнем правом углу логотип РГ АрхиAsia
Скриншоты:
Все одноименные релизы в КлубеВремя раздачи: как минимум до появления первых 3-5 скачавших (минимум до появления первых 3-5 скачавших)
[Профиль] [ЛС]
Показать сообщения:    
Ответить на тему

Текущее время: 22-Фев 01:03

Часовой пояс: UTC ± 0



Вы не можете начинать темы
Вы не можете отвечать на сообщения
Вы не можете редактировать свои сообщения
Вы не можете удалять свои сообщения
Вы не можете голосовать в опросах
Вы не можете прикреплять файлы к сообщениям
Вы не можете скачивать файлы

[  Время выполнения: 0,033 сек  |  MySQL: 0,002 сек (7%) · 3 запр.  |  GZIP выкл  |  Память: 421,85 KB / 1,73 MB / 1,34 MB  |  Лимит: 19 20 19  ]