Телохранитель жены киллера / Hitman's Wife's Bodyguard (2021) WEBRip [MVO, AD]

Ответить на тему
 
Автор Сообщение

admin ®

Пол: Не указан

Стаж: 4 месяца 27 дня

Сообщений: 10110

Создавать темы 30-Янв-2024 14:00

[Цитировать]

Телохранитель жены киллера / Hitman's Wife's Bodyguard (2021) WEBRip - Производство: Великобритания, США / Above the Line Set Assistance & Security, Campbell Grobman Films, Millennium Media, Summit Entertainment
Жанр: боевик, комедия
Режиссер: Патрик Хьюз
Продюсер: Мэттью О’Тул, Криста Кэмпбелл, Лати Гробман
Актеры: Райан Рейнольдс, Сэмюэл Л. Джексон, Сальма Хайек, Морган Фриман, Гари Олдман, Фрэнк Грилло, Антонио Бандерас, Том Хоппер, Ричард Э. Грант, Кэролайн Гудолл
Описание:
Жизнь здорово потрепала нервишки Майкла Брайса, так что с карьерой телохранителя он решил завязать. Психотерапевт посоветовал ему отправиться на тихий курорт, вооружившись лишь книжкой и плейлистом расслабляющей музыки. Но и здесь его находит самая безумная в мире парочка: киллер мирового уровня и настоящий магнит неприятностей Дариус Кинкейд и его супруга Соня — буйная дамочка не робкого десятка. Преступный синдикат устроил на них охоту, и Майклу, при всем желании остаться в стороне, придется вернуться к старому ремеслу и снова стать телохранителем. На этот раз — жены киллера!
Возраст: 18+ (зрителям, достигшим 18 лет. запрещено для детей)
Рейтинг MPAA: R (лицам до 17 лет обязательно присутствие взрослого)
Дата мировой премьеры: 10 июня 2021
Дата российской премьеры: 16 июня 2021, «MEGOGO Distribution» IMAX
Продолжительность: 01:39:41
Качество видео: WEBRip
Перевод: Любительский многоголосый (AlphaProject)
Язык озвучки: Русский
Субтитры: Отсутствуют
Реклама: Присутствует баннер!
Видео: XviD, 720x304, 1551 kbps
Аудио: AC-3, 2 ch, 384 kbps - Русский (MVO, AlphaProject)

MediaInfo:

Общее
Полное имя : F:\[Anf]_Hitman's Wife's Bodyguard_(2021)_WEB-DLRip.avi
Формат : AVI
Формат/Информация : Audio Video Interleave
Профиль формата : OpenDML
Размер файла : 1,36 Гбайт
Продолжительность : 1 ч. 39 м.
Общий поток : 1 948 Кбит/сек
Видео
Идентификатор : 0
Формат : MPEG-4 Visual
Профиль формата : Advanced Simple@L5
Настройки формата : BVOP2
Параметр BVOP формата : 2
Параметр QPel формата : Нет
Параметр GMC формата : Без точки перехода
Параметр матрицы формата : Default (H.263)
Идентификатор кодека : XVID
Идентификатор кодека/Подсказка : XviD
Продолжительность : 1 ч. 39 м.
Битрейт : 1 551 Кбит/сек
Ширина : 720 пикселей
Высота : 304 пикселя
Соотношение сторон : 2,35:1
Частота кадров : 23,976 (24000/1001) кадра/сек
Цветовое пространство : YUV
Субдискретизация насыщенности : 4:2:0
Битовая глубина : 4 бит
Тип развёртки : Прогрессивная
Метод сжатия : С потерями
Бит/(Пиксели*Кадры) : 0.296
Размер потока : 1,08 Гбайт (80%)
Библиотека кодирования : XviD 1.2.1 (UTC 2008-12-04)
Аудио
Идентификатор : 1
Формат : AC-3
Формат/Информация : Audio Coding 3
Коммерческое название : Dolby Digital
Идентификатор кодека : 2000
Продолжительность : 1 ч. 39 м.
Вид битрейта : Постоянный
Битрейт : 384 Кбит/сек
Каналы : 2 канала
Channel layout : L R
Частота : 48,0 КГц
Частота кадров : 31,250 кадров/сек (1536 SPF)
Метод сжатия : С потерями
Размер потока : 274 Мбайт (20%)
Выравнивание : Соединение по промежуткам
Продолжительность промежутка : 32 мс. (0,77 видеокадр)
Service kind : Complete Main

Дополнительно:

Места с тишиной - зачищена звуковая реклама!
Скриншоты: Все одноименные релизы в Клубе Время раздачи: с 18:00 до 24:00 (до первых 3-5 скачавших)
[Профиль] [ЛС]
Показать сообщения:    
Ответить на тему

Текущее время: 25-Фев 17:33

Часовой пояс: UTC ± 0



Вы не можете начинать темы
Вы не можете отвечать на сообщения
Вы не можете редактировать свои сообщения
Вы не можете удалять свои сообщения
Вы не можете голосовать в опросах
Вы не можете прикреплять файлы к сообщениям
Вы не можете скачивать файлы

[  Время выполнения: 0,040 сек  |  MySQL: 0,004 сек (10%) · 3 запр.  |  GZIP выкл  |  Память: 422,29 KB / 1,74 MB / 1,34 MB  |  Лимит: 9 9 9  ]