Полночь на злаковом поле / Midnight in the Switchgrass (2021) WEB-DLRip [H.264/1080p-LQ] [MVO, AD]

Ответить на тему
 
Автор Сообщение

admin ®

Пол: Не указан

Стаж: 4 месяца 27 дня

Сообщений: 10110

Создавать темы 30-Янв-2024 14:00

[Цитировать]

Полночь на злаковом поле / Midnight in the Switchgrass (2021) WEB-DLRip [H.264/1080p-LQ] - Производство: США / BondIt, Emmett/Furla Films, Pimienta, River Bay Films, Verdi Productions
Жанр: криминал, детектив, триллер
Режиссер: Рэндолл Эмметт
Продюсер: Эдвард Бекфорд, Аластер Берлинэм, Стивен Дж. Идс
Актеры: Меган Фокс, Эмиль Хирш, Брюс Уиллис, Машин Ган Келли, Майкл Бич, Систин Роуз Сталлоне, Кэйтлин Кармайкл, Лукас Хаас, Джеки Крус, Тайлер Джон Олсон
Описание:
Два агента ФБР пытаются накрыть сеть торговцев людьми, когда понимают, что их дело пересекается с многолетним расследованием серийных убийств. Они объединяются с техасским рейнджером, но вскоре агентша сама оказывается в лапах у маньяка, и теперь у её напарников есть всего несколько часов на спасение её жизни.
Возраст: 18+ (зрителям, достигшим 18 лет. запрещено для детей)
Рейтинг MPAA: R (лицам до 17 лет обязательно присутствие взрослого)
Дата мировой премьеры: 23 июля 2021
Дата российской премьеры: 5 августа 2021, «Парадиз»
Релиз от: Anrif
Продолжительность: 01:38:11
Качество видео: WEB-DLRip
Перевод: Любительский многоголосый (ALPHAPROJECT)
Язык озвучки: Русский
Субтитры: Отсутствуют
Реклама: Присутствует баннер!
Видео: AVC/H.264, 1920x804, ~13.3 Mbps
Аудио 1: AС-3, 2 ch, 320 kbps - Русский (MVO, ALPHAPROJECT)
Аудио 2: AAC, 2 ch, 576 kbps - Русский (MVO, ALPHAPROJECT)

MediaInfo:

Общее
Уникальный идентификатор : 326439290246268499956853832893394332500 (0xF595EBA00DD3F85DDC505F422BA02B54)
Полное имя : F:\[Anf]_Midnight in the Switchgrass_(2021)_WEB-DLRip_[1080p].mkv
Формат : Matroska
Версия формата : Version 4
Размер файла : 9,72 Гбайт
Продолжительность : 1 ч. 38 м.
Режим общего битрейта : Переменный
Общий поток : 14,2 Мбит/сек
Название фильма : Midnight in the Switchgrass_(2021)
Дата кодирования : UTC 2021-07-16 21:41:35
Программа кодирования : mkvmerge v50.0.0 ('Awakenings') 64-bit
Библиотека кодирования : libebml v1.4.0 + libmatroska v1.6.2
Видео
Идентификатор : 1
Формат : AVC
Формат/Информация : Advanced Video Codec
Профиль формата : High@L4.1
Настройки формата : CABAC / 4 Ref Frames
Параметр CABAC формата : Да
Параметр RefFrames формата : 4 кадра
Идентификатор кодека : V_MPEG4/ISO/AVC
Продолжительность : 1 ч. 38 м.
Вид битрейта : Переменный
Битрейт : 13,3 Мбит/сек
Номинальный битрейт : 16,0 Мбит/сек
Максимальный битрейт : 16,0 Мбит/сек
Ширина : 1 920 пикселей
Высота : 804 пикселя
Соотношение сторон : 2,40:1
Режим частоты кадров : Постоянный
Частота кадров : 23,976 (24000/1001) кадра/сек
Стандарт вещания : Component
Цветовое пространство : YUV
Субдискретизация насыщенности : 4:2:0
Битовая глубина : 8 бит
Тип развёртки : Прогрессивная
Бит/(Пиксели*Кадры) : 0.359
Размер потока : 9,11 Гбайт (94%)
Заголовок : Anrif
Библиотека кодирования : x264 core 155
Настройки программы : cabac=1 / ref=4 / deblock=0:0:0 / analyse=0x3:0x3 / me=dia / subme=1 / psy=1 / psy_rd=1.00:0.00 / mixed_ref=0 / me_range=16 / chroma_me=1 / trellis=0 / 8x8dct=1 / cqm=1 / deadzone=21,11 / fast_pskip=1 / chroma_qp_offset=0 / threads=25 / lookahead_threads=4 / sliced_threads=0 / slices=1 / nr=0 / decimate=1 / interlaced=0 / minigop=0 / stitchable=1 / constrained_intra=0 / bframes=1 / b_pyramid=0 / b_adapt=0 / b_bias=0 / direct=1 / weightb=1 / open_gop=1 / weightp=0 / keyint=240 / keyint_min=23 / scenecut=40 / intra_refresh=0 / rc_lookahead=0 / rc=cbr / mbtree=0 / bitrate=16000 / ratetol=1.0 / qcomp=0.60 / qpmin=1 / qpmax=69 / qpstep=4 / vbv_maxrate=16000 / vbv_bufsize=16000 / nal_hrd=vbr / filler=0 / ip_ratio=1.40 / pb_ratio=1.30 / aq=1:1.00
Default : Нет
Forced : Нет
Цветовой диапазон : Limited
Основные цвета : BT.709
Характеристики трансфера : BT.709
Коэффициенты матрицы : BT.709
Аудио #1
Идентификатор : 2
Формат : AC-3
Формат/Информация : Audio Coding 3
Коммерческое название : Dolby Digital
Идентификатор кодека : A_AC3
Продолжительность : 1 ч. 38 м.
Вид битрейта : Постоянный
Битрейт : 320 Кбит/сек
Каналы : 2 канала
Channel layout : L R
Частота : 48,0 КГц
Частота кадров : 31,250 кадров/сек (1536 SPF)
Метод сжатия : С потерями
Размер потока : 225 Мбайт (2%)
Заголовок : (AC-3, MVO, ALPHAPROJECT)
Язык : Russian
Service kind : Complete Main
Default : Да
Forced : Да
Аудио #2
Идентификатор : 3
Формат : AAC Main
Формат/Информация : Advanced Audio Codec
Идентификатор кодека : A_AAC-1
Продолжительность : 1 ч. 38 м.
Битрейт : 576 Кбит/сек
Каналы : 2 канала
Channel layout : L R
Частота : 48,0 КГц
Частота кадров : 46,875 кадров/сек (1024 SPF)
Метод сжатия : С потерями
Размер потока : 403 Мбайт (4%)
Заголовок : (AAC, MVO, ALPHAPROJECT)
Язык : Russian
Default : Нет
Forced : Нет
Скриншоты: Все одноименные релизы в Клубе Время раздачи: с 18:00 до 24:00 (до первых 3-5 скачавших)
[Профиль] [ЛС]
Показать сообщения:    
Ответить на тему

Текущее время: 25-Фев 21:24

Часовой пояс: UTC ± 0



Вы не можете начинать темы
Вы не можете отвечать на сообщения
Вы не можете редактировать свои сообщения
Вы не можете удалять свои сообщения
Вы не можете голосовать в опросах
Вы не можете прикреплять файлы к сообщениям
Вы не можете скачивать файлы

[  Время выполнения: 0,039 сек  |  MySQL: 0,004 сек (10%) · 3 запр.  |  GZIP выкл  |  Память: 422,29 KB / 1,75 MB / 1,37 MB  |  Лимит: 16 16 14  ]