Свинья / Pig (2021) WEB-DLRip [H.264/1080p-LQ] [MVO, AD]

Ответить на тему
 
Автор Сообщение

admin ®

Пол: Не указан

Стаж: 6 месяца 22 дня

Сообщений: 11520

Создавать темы 30-Янв-2024 14:00

[Цитировать]

Свинья / Pig (2021) WEB-DLRip [H.264/1080p-LQ] - Производство: Великобритания, США / AI-Film, BlockBox Entertainment, Escape Artists, Pulse Films, Saturn Films, Sweet Tomato Films, Valparaiso Pictures
Жанр: триллер, драма
Режиссер: Michael Sarnoski
Продюсер: Томас Бенски, Николас Кейдж, Дэвид Каррико
Актеры: Николас Кейдж, Алекс Вулф, Адам Аркин, Нина Бельфорте, Далин Янг, Гретчен Корбетт, Джулия Брэй, Дариус Пирс, Elijah Ungvary, Брайан Сазерленд
Описание:
Охотник за трюфелями живет один в дикой Орегонской пустыне. Когда его любимую свинью похищают неизвестные люди, леснику приходится броситься на её поиски и столкнуться лицом к лицу со своим прошлым.
Рейтинг MPAA: R (лицам до 17 лет обязательно присутствие взрослого)
Дата мировой премьеры: 16 июля 2021
Релиз от: Anrif
Продолжительность: 01:31:58
Качество видео: WEB-DLRip
Перевод: Любительский многоголосый (MUZOBOZ)
Язык озвучки: Русский
Субтитры: Отсутствуют
Реклама: Присутствует баннер!
Видео: AVC/H.264, 1916x800, ~9497 kbps
Аудио: AС3, 2 ch, 320 kbps - Русский (MVO, MUZOBOZ)
Аудио: AAC, 2 ch, 384 kbps - Русский (MVO, MUZOBOZ)

MediaInfo:

Общее
Уникальный идентификатор : 227191499414599350785775786774849593946 (0xAAEB7DBE30011E9050DD91246FBF225A)
Полное имя : F:\[AnF]_Pig(2021)_WEB-DLRip_[1080p-LQ].mkv
Формат : Matroska
Версия формата : Version 4
Размер файла : 6,55 Гбайт
Продолжительность : 1 ч. 31 м.
Режим общего битрейта : Переменный
Общий поток : 10,2 Мбит/сек
Название фильма : Pig_(2021)
Дата кодирования : UTC 2021-07-17 20:43:45
Программа кодирования : mkvmerge v50.0.0 ('Awakenings') 64-bit
Библиотека кодирования : libebml v1.4.0 + libmatroska v1.6.2
Видео
Идентификатор : 1
Формат : AVC
Формат/Информация : Advanced Video Codec
Профиль формата : High@L4.1
Настройки формата : CABAC / 4 Ref Frames
Параметр CABAC формата : Да
Параметр RefFrames формата : 4 кадра
Идентификатор кодека : V_MPEG4/ISO/AVC
Продолжительность : 1 ч. 31 м.
Вид битрейта : Переменный
Битрейт : 9 497 Кбит/сек
Номинальный битрейт : 11,0 Мбит/сек
Максимальный битрейт : 11,0 Мбит/сек
Ширина : 1 916 пикселей
Высота : 800 пикселей
Соотношение сторон : 2,40:1
Режим частоты кадров : Постоянный
Частота кадров : 23,976 (24000/1001) кадра/сек
Стандарт вещания : Component
Цветовое пространство : YUV
Субдискретизация насыщенности : 4:2:0
Битовая глубина : 8 бит
Тип развёртки : Прогрессивная
Бит/(Пиксели*Кадры) : 0.258
Размер потока : 6,10 Гбайт (93%)
Заголовок : Anrif
Библиотека кодирования : x264 core 155
Настройки программы : cabac=1 / ref=4 / deblock=1:0:0 / analyse=0x3:0x3 / me=dia / subme=1 / psy=1 / psy_rd=1.00:0.00 / mixed_ref=0 / me_range=16 / chroma_me=1 / trellis=0 / 8x8dct=1 / cqm=1 / deadzone=21,11 / fast_pskip=1 / chroma_qp_offset=0 / threads=25 / lookahead_threads=4 / sliced_threads=0 / slices=1 / nr=0 / decimate=1 / interlaced=0 / minigop=0 / stitchable=1 / constrained_intra=0 / bframes=2 / b_pyramid=0 / b_adapt=0 / b_bias=0 / direct=1 / weightb=1 / open_gop=1 / weightp=0 / keyint=240 / keyint_min=23 / scenecut=40 / intra_refresh=0 / rc_lookahead=0 / rc=cbr / mbtree=0 / bitrate=11000 / ratetol=1.0 / qcomp=0.60 / qpmin=1 / qpmax=69 / qpstep=4 / vbv_maxrate=11000 / vbv_bufsize=11000 / nal_hrd=vbr / filler=0 / ip_ratio=1.40 / pb_ratio=1.30 / aq=1:1.00
Default : Нет
Forced : Нет
Цветовой диапазон : Limited
Основные цвета : BT.709
Характеристики трансфера : BT.709
Коэффициенты матрицы : BT.709
Аудио #1
Идентификатор : 2
Формат : AC-3
Формат/Информация : Audio Coding 3
Коммерческое название : Dolby Digital
Идентификатор кодека : A_AC3
Продолжительность : 1 ч. 31 м.
Вид битрейта : Постоянный
Битрейт : 320 Кбит/сек
Каналы : 2 канала
Channel layout : L R
Частота : 48,0 КГц
Частота кадров : 31,250 кадров/сек (1536 SPF)
Метод сжатия : С потерями
Размер потока : 211 Мбайт (3%)
Заголовок : (AC-3, MVO, MUZOBOZ)
Язык : Russian
Service kind : Complete Main
Default : Да
Forced : Да
Аудио #2
Идентификатор : 3
Формат : AAC Main
Формат/Информация : Advanced Audio Codec
Идентификатор кодека : A_AAC-1
Продолжительность : 1 ч. 31 м.
Битрейт : 384 Кбит/сек
Каналы : 2 канала
Channel layout : L R
Частота : 48,0 КГц
Частота кадров : 46,875 кадров/сек (1024 SPF)
Метод сжатия : С потерями
Размер потока : 251 Мбайт (4%)
Заголовок : (AAC, MVO, MUZOBOZ)
Язык : Russian
Default : Нет
Forced : Нет
Скриншоты: Все одноименные релизы в Клубе Время раздачи: с 18:00 до 24:00 (до первых 3-5 скачавших)
[Профиль] [ЛС]
Показать сообщения:    
Ответить на тему

Текущее время: 20-Апр 19:45

Часовой пояс: UTC ± 0



Вы не можете начинать темы
Вы не можете отвечать на сообщения
Вы не можете редактировать свои сообщения
Вы не можете удалять свои сообщения
Вы не можете голосовать в опросах
Вы не можете прикреплять файлы к сообщениям
Вы не можете скачивать файлы

[  Время выполнения: 0,039 сек  |  MySQL: 0,004 сек (11%) · 5 запр.  |  GZIP выкл  |  Память: 422,29 KB / 1,74 MB / 1,36 MB  |  Лимит: 4 5 6  ]