Судная ночь навсегда / The Forever Purge (2021) WEB-DLRip [H.264/1080p-LQ] [Line, AD]

Ответить на тему
 
Автор Сообщение

admin ®

Пол: Не указан

Стаж: 4 месяца 27 дня

Сообщений: 10110

Создавать темы 30-Янв-2024 14:00

[Цитировать]

Судная ночь навсегда / The Forever Purge (2021) WEB-DLRip [H.264/1080p-LQ]- Производство: США, Мексика, Франци, Blumhouse Productions, Man in A Tree, Perfect World (Beijing) Pictures Co., Пифагор, Platinum Dunes, Universal Pictures
Жанр: ужасы, боевик, триллер
Режиссер: Эверардо Валерио Гоут
Продюсер: Майкл Бэй, Джейсон Блум, Марсеи А. Браун
Актеры: Ана де ла Регера, Джош Лукас, Кэссиди Фриман, Вероника Фалькон, Ливэн Рамбин, Уилл Пэттон, Сьюзи Абромейт, Теноч Уэрта, Алехандро Эдда, Уилл Бриттейн
Описание:
Этим летом все правила будут нарушены. Группа мародеров решает, что ежегодная Судная ночь не должна заканчиваться с наступлением утра, а может продолжаться бесконечно. Никто больше не будет в безопасности.
Возраст: 18+ (зрителям, достигшим 18 лет. запрещено для детей)
Рейтинг MPAA: R (лицам до 17 лет обязательно присутствие взрослого)
Дата мировой премьеры: 30 июня 2021
Дата российской премьеры: 1 июля 2021, «UPI»
Продолжительность: 01:42:47
Качество видео: WEB-DLRip
Перевод: Дублированный (Line)
Субтитры: Русские (на испанскую речь)
Реклама: Присутствует баннер
Видео: AVC/H.264, 1918x1038, 10.3 Mbps, 23.976 fps
Аудио: АС3, 2 ch, 48 kHz, 384 Kbps | Русский

MediaInfo:

Общее
Полное имя : D:\Судная.ночь.навсегда.2021.WEB-DLRip.[1080p].Soft-Torrent - торрент игры программы фильмы книги скачать.mkv
Формат : Matroska
Версия формата : Version 2
Размер файла : 7,85 Гбайт
Продолжительность : 1 ч. 42 м.
Режим общего битрейта : Переменный
Общий поток : 10,9 Мбит/сек
Программа кодирования : libmatroska 1.4.1
Библиотека кодирования : SolveigMM Matroska Muxer Version 1.0.2010.29
Видео
Идентификатор : 1
Формат : AVC
Формат/Информация : Advanced Video Codec
Профиль формата : High@L4.1
Настройки формата : CABAC / 4 Ref Frames
Параметр CABAC формата : Да
Параметр RefFrames формата : 4 кадра
Идентификатор кодека : V_MPEG4/ISO/AVC
Продолжительность : 1 ч. 42 м.
Вид битрейта : Переменный
Битрейт : 10,3 Мбит/сек
Номинальный битрейт : 12,0 Мбит/сек
Максимальный битрейт : 12,0 Мбит/сек
Ширина : 1918 пикселей
Высота : 1038 пикселей
Соотношение сторон : 1,85:1
Режим частоты кадров : Постоянный
Частота кадров : 23,976 (24000/1001) кадра/сек
Стандарт вещания : Component
Цветовое пространство : YUV
Субдискретизация насыщенности : 4:2:0
Битовая глубина : 8 бит
Тип развёртки : Прогрессивная
Бит/(Пиксели*Кадры) : 0.216
Размер потока : 7,42 Гбайт (94%)
Язык : English
Default : Да
Forced : Нет
Цветовой диапазон : Limited
Основные цвета : BT.709
Характеристики трансфера : BT.709
Коэффициенты матрицы : BT.709
Аудио
Идентификатор : 2
Формат : AC-3
Формат/Информация : Audio Coding 3
Коммерческое название : Dolby Digital
Идентификатор кодека : A_AC3
Продолжительность : 1 ч. 42 м.
Вид битрейта : Постоянный
Битрейт : 384 Кбит/сек
Каналы : 2 канала
ChannelLayout : L R
Частота : 48,0 КГц
Частота кадров : 31,250 кадров/сек (1536 SPF)
Битовая глубина : 16 бит
Метод сжатия : С потерями
Размер потока : 282 Мбайт (4%)
Язык : Russian
ServiceKind/String : Complete Main
Default : Да
Forced : Нет
Скриншоты:
Все одноименные релизы в КлубеВремя раздачи: 24/7 (круглосуточно) (до появления первых 3-5 скачавших)
[Профиль] [ЛС]
Показать сообщения:    
Ответить на тему

Текущее время: 25-Фев 21:50

Часовой пояс: UTC ± 0



Вы не можете начинать темы
Вы не можете отвечать на сообщения
Вы не можете редактировать свои сообщения
Вы не можете удалять свои сообщения
Вы не можете голосовать в опросах
Вы не можете прикреплять файлы к сообщениям
Вы не можете скачивать файлы

[  Время выполнения: 0,033 сек  |  MySQL: 0,003 сек (10%) · 5 запр.  |  GZIP выкл  |  Память: 422,29 KB / 1,73 MB / 1,34 MB  |  Лимит: 19 17 15  ]