Как это закончится / How It Ends (2021) WEBRip [H.264/1080p-LQ] [MVO, AD]

Ответить на тему
 
Автор Сообщение

admin ®

Пол: Не указан

Стаж: 4 месяца 27 дня

Сообщений: 10110

Создавать темы 30-Янв-2024 14:00

[Цитировать]

Как это закончится / How It Ends (2021) WEBRip [H.264/1080p-LQ] - Производство: США / Mister Lister Films
Жанр: комедия
Режиссер: Дэрил Вейн, Зои Листер Джонс
Продюсер: Зои Листер Джонс, Дэрил Вейн
Актеры: Зои Листер Джонс, Кэйли Спэни, Уитни Каммингс, Тоуни Ньюсом, Финн Вулфард, Ник Кролл, Логан Маршалл-Грин, Бобби Ли, Фред Армисен, Гленн Хауэртон
Описание:
Лиза собирается устроить вечеринку как раз перед тем, как гигантский астероид должен упасть на Землю и полностью ее уничтожить. Организация праздников никогда не была легкой задачей даже в обычные времена, а перед апокалипсисом становится и вовсе невыполнимой. Лизу преследует неудача за неудачей, и в итоге ей приходится отправиться пешком через весь Лос-Анджелес в компании своей острой на язык сестры, чтобы обрести мир с собой и найти компанию на конец света.
Рейтинг MPAA: R (лицам до 17 лет обязательно присутствие взрослого)
Дата мировой премьеры: 29 января 2021
Релиз от: Anrif
Продолжительность: 01:22:38
Качество видео: WEBRip
Перевод: Любительский многоголосый (MUZOBOZ)
Язык озвучки: Русский
Субтитры: Отсутствуют
Реклама: Присутствует баннер!
Видео: AVC/H.264, 1920x1080, ~8603 kbps
Аудио: AС-3, 2 ch, 320 kbps - Русский (MVO, MUZOBOZ)

MediaInfo:

Общее
Уникальный идентификатор : 232399893134625200853776565515183606346 (0xAED6976124A571CF90E3D6AA2B8A4A4A)
Полное имя : F:\[Anf]_How It Ends_(2021)_WEB-DLRip_[1080p-LQ].mkv
Формат : Matroska
Версия формата : Version 4
Размер файла : 5,15 Гбайт
Продолжительность : 1 ч. 22 м.
Режим общего битрейта : Переменный
Общий поток : 8 925 Кбит/сек
Название фильма : How It Ends_(2021)
Дата кодирования : UTC 2021-07-21 18:38:23
Программа кодирования : mkvmerge v50.0.0 ('Awakenings') 64-bit
Библиотека кодирования : libebml v1.4.0 + libmatroska v1.6.2
Видео
Идентификатор : 1
Формат : AVC
Формат/Информация : Advanced Video Codec
Профиль формата : High@L4.1
Настройки формата : CABAC / 4 Ref Frames
Параметр CABAC формата : Да
Параметр RefFrames формата : 4 кадра
Идентификатор кодека : V_MPEG4/ISO/AVC
Продолжительность : 1 ч. 22 м.
Вид битрейта : Переменный
Битрейт : 8 603 Кбит/сек
Максимальный битрейт : 10 000 Кбит/сек
Ширина : 1 920 пикселей
Высота : 1 080 пикселей
Соотношение сторон : 16:9
Режим частоты кадров : Постоянный
Частота кадров : 23,976 (24000/1001) кадра/сек
Стандарт вещания : Component
Цветовое пространство : YUV
Субдискретизация насыщенности : 4:2:0
Битовая глубина : 8 бит
Тип развёртки : Прогрессивная
Бит/(Пиксели*Кадры) : 0.173
Размер потока : 4,97 Гбайт (96%)
Заголовок : Anrif
Default : Нет
Forced : Нет
Цветовой диапазон : Limited
Основные цвета : BT.709
Характеристики трансфера : BT.709
Коэффициенты матрицы : BT.709
Аудио
Идентификатор : 2
Формат : AC-3
Формат/Информация : Audio Coding 3
Коммерческое название : Dolby Digital
Идентификатор кодека : A_AC3
Продолжительность : 1 ч. 22 м.
Вид битрейта : Постоянный
Битрейт : 320 Кбит/сек
Каналы : 2 канала
Channel layout : L R
Частота : 48,0 КГц
Частота кадров : 31,250 кадров/сек (1536 SPF)
Метод сжатия : С потерями
Задержка видео : 19 мс.
Размер потока : 189 Мбайт (4%)
Заголовок : (MVO, MUZOBOZ)
Язык : Russian
Service kind : Complete Main
Default : Да
Forced : Нет
Скриншоты: Все одноименные релизы в Клубе Время раздачи: с 18:00 до 24:00 (до первых 3-5 скачавших)
[Профиль] [ЛС]
Показать сообщения:    
Ответить на тему

Текущее время: 25-Фев 18:47

Часовой пояс: UTC ± 0



Вы не можете начинать темы
Вы не можете отвечать на сообщения
Вы не можете редактировать свои сообщения
Вы не можете удалять свои сообщения
Вы не можете голосовать в опросах
Вы не можете прикреплять файлы к сообщениям
Вы не можете скачивать файлы

[  Время выполнения: 0,032 сек  |  MySQL: 0,003 сек (10%) · 3 запр.  |  GZIP выкл  |  Память: 422,29 KB / 1,74 MB / 1,34 MB  |  Лимит: 17 17 16  ]