Игра на выживание / One of These Days (2020) WEBRip [H.264/1080p-LQ] [MVO, AD]

Ответить на тему
 
Автор Сообщение

admin ®

Пол: Не указан

Стаж: 5 месяца 1 день

Сообщений: 10110

Создавать темы 30-Янв-2024 14:00

[Цитировать]

Игра на выживание / One of These Days (2020) WEBRip [H.264/1080p-LQ] - Производство: США, Германия / Flare Film, Pyramid FX
Жанр: триллер, драма
Режиссер: Бастиан Гюнтер
Продюсер: Мартин Хейслер, Петер Веверка, Грифф Ферст
Актеры: Джо Коул, Кэрри Престон, Калли Эрнандес, Девин А. Тайлер, Каллен Мосс, Люси Фауст, Джесси Бойд, Билли Слотер, Сэм Мэлоун, Кори Скотт Аллен
Описание:
Владелец техасского автосалона решает разыграть внедорожник среди двадцатки избранных. Безобидное шоу с живой музыкой и бесплатной выпивкой оборачивается нешуточным испытанием для его участников. Среди претендентов — молодой отец семейства Кайл, стремящийся всеми силами упрочить свои жизненные позиции. Он должен продержаться до конца, несмотря на нечеловеческую усталость и козни соперников.
Возраст: 18+ (зрителям, достигшим 18 лет. запрещено для детей)
Дата мировой премьеры: 22 февраля 2020
Дата мировой премьеры: 17 июня 2021, «Русский Репортаж»
Релиз от: Anrif
Продолжительность: 01:59:49
Качество видео: WEBRip
Перевод: Профессиональный многоголосый (Русский Репортаж)
Язык озвучки: Русский
Субтитры: Отсутствуют
Реклама: Присутствует баннер!
Видео: AVC/H.264, 1920x804, ~6946 kbps
Аудио: AС-3, 2 ch, 320 kbps - Русский

MediaInfo:

Общее
Уникальный идентификатор : 140523452871695726690559320121936255596 (0x69B7D523CB5BC97E9D090E2EF4051A6C)
Полное имя : F:\[Anf]_One of These Days_(2020)_WEBRip_[1080p-LQ].mkv
Формат : Matroska
Версия формата : Version 4
Размер файла : 6,08 Гбайт
Продолжительность : 1 ч. 59 м.
Режим общего битрейта : Переменный
Общий поток : 7 268 Кбит/сек
Название фильма : One of These Days_(2020)
Дата кодирования : UTC 2021-07-22 19:13:06
Программа кодирования : mkvmerge v50.0.0 ('Awakenings') 64-bit
Библиотека кодирования : libebml v1.4.0 + libmatroska v1.6.2
Видео
Идентификатор : 1
Формат : AVC
Формат/Информация : Advanced Video Codec
Профиль формата : High@L4.1
Настройки формата : CABAC / 4 Ref Frames
Параметр CABAC формата : Да
Параметр RefFrames формата : 4 кадра
Идентификатор кодека : V_MPEG4/ISO/AVC
Продолжительность : 1 ч. 59 м.
Вид битрейта : Переменный
Битрейт : 6 946 Кбит/сек
Номинальный битрейт : 8 000 Кбит/сек
Максимальный битрейт : 8 000 Кбит/сек
Ширина : 1 920 пикселей
Высота : 804 пикселя
Соотношение сторон : 2,40:1
Режим частоты кадров : Постоянный
Частота кадров : 23,976 (24000/1001) кадра/сек
Стандарт вещания : Component
Цветовое пространство : YUV
Субдискретизация насыщенности : 4:2:0
Битовая глубина : 8 бит
Тип развёртки : Прогрессивная
Бит/(Пиксели*Кадры) : 0.188
Размер потока : 5,81 Гбайт (96%)
Заголовок : Anrif
Библиотека кодирования : x264 core 155
Настройки программы : cabac=1 / ref=4 / deblock=1:0:0 / analyse=0x3:0x3 / me=dia / subme=1 / psy=1 / psy_rd=1.00:0.00 / mixed_ref=0 / me_range=16 / chroma_me=1 / trellis=0 / 8x8dct=1 / cqm=1 / deadzone=21,11 / fast_pskip=1 / chroma_qp_offset=0 / threads=25 / lookahead_threads=4 / sliced_threads=0 / slices=1 / nr=0 / decimate=1 / interlaced=0 / minigop=0 / stitchable=1 / constrained_intra=0 / bframes=2 / b_pyramid=0 / b_adapt=0 / b_bias=0 / direct=1 / weightb=1 / open_gop=1 / weightp=0 / keyint=240 / keyint_min=23 / scenecut=40 / intra_refresh=0 / rc_lookahead=0 / rc=cbr / mbtree=0 / bitrate=8000 / ratetol=1.0 / qcomp=0.60 / qpmin=1 / qpmax=69 / qpstep=4 / vbv_maxrate=8000 / vbv_bufsize=8000 / nal_hrd=vbr / filler=0 / ip_ratio=1.40 / pb_ratio=1.30 / aq=1:1.00
Язык : English
Default : Нет
Forced : Нет
Цветовой диапазон : Limited
Основные цвета : BT.709
Характеристики трансфера : BT.709
Коэффициенты матрицы : BT.709
Аудио
Идентификатор : 2
Формат : AC-3
Формат/Информация : Audio Coding 3
Коммерческое название : Dolby Digital
Идентификатор кодека : A_AC3
Продолжительность : 1 ч. 59 м.
Вид битрейта : Постоянный
Битрейт : 320 Кбит/сек
Каналы : 2 канала
Channel layout : L R
Частота : 48,0 КГц
Частота кадров : 31,250 кадров/сек (1536 SPF)
Метод сжатия : С потерями
Размер потока : 274 Мбайт (4%)
Заголовок : (MVO, Line)
Язык : Russian
Service kind : Complete Main
Default : Да
Forced : Да
Скриншоты: Все одноименные релизы в Клубе Время раздачи: с 18:00 до 24:00 (до первых 3-5 скачавших)
[Профиль] [ЛС]
Показать сообщения:    
Ответить на тему

Текущее время: 29-Фев 12:20

Часовой пояс: UTC ± 0



Вы не можете начинать темы
Вы не можете отвечать на сообщения
Вы не можете редактировать свои сообщения
Вы не можете удалять свои сообщения
Вы не можете голосовать в опросах
Вы не можете прикреплять файлы к сообщениям
Вы не можете скачивать файлы

[  Время выполнения: 0,038 сек  |  MySQL: 0,003 сек (8%) · 3 запр.  |  GZIP выкл  |  Память: 422,29 KB / 1,74 MB / 1,36 MB  |  Лимит: 17 16 13  ]