Ребенок, рожденный в крови / Кровавый рожденный / Blood Born (2021) WEBRip [H.264/1080p-LQ] [MVO, AD]

Ответить на тему
 
Автор Сообщение

admin ®

Пол: Не указан

Стаж: 4 месяца 27 дня

Сообщений: 10110

Создавать темы 30-Янв-2024 14:00

[Цитировать]

Ребенок, рожденный в крови / Кровавый рожденный / Blood Born (2021) WEBRip [H.264/1080p-LQ] - Производство: США / Epic Level Entertainment
Жанр: ужасы
Режиссер: Reed Shusterman
Продюсер: Дэна Герин, Синди Райс, Джон Фрэнк Розенблюм
Актеры: Антуан Перри, Мелани Хэйнс, Лорин Прайс, Коул Гердес, Леа Веррилл, Стэйси Моусли, Джоди Ждаресс, Трэйси Винтерс, Дженнифер Дэйли, Джастин Гиддингс
Описание:
Макейла и Эрик многие годы пытались зачать ребенка, но в итоге всё, что могла дать традиционная медицина им не помогло. Главные герои дошли до состояния отчаяния, посему обратились в некий таинственный фонд, в котором им дали обещание, что смогут помочь неким магическим образом. Однако вскоре молодая пара понимает, что их ребенок может оказаться не совсем человеком.
Дата мировой премьеры: 16 июля 2021
Релиз от: Anrif
Продолжительность: 01:31:35
Качество видео: WEBRip
Перевод: Любительский многоголосый (Синема УС)
Язык озвучки: Русский
Субтитры: Отсутствуют
Реклама: Присутствует баннер!
Видео: AVC/H.264, 1920x1080, ~6901 kbps
Аудио: AС-3, 2 ch, 320 kbps - Русский (MVO, Синема УС)

MediaInfo:

Общее
Уникальный идентификатор : 198443300558789486512173141973636420996 (0x954ACA1B6BF0110861A5E8FC7B0F1584)
Полное имя : F:\[Anf]_Blood Born_(2021)_WEBRip_[1080p-LQ].mkv
Формат : Matroska
Версия формата : Version 4
Размер файла : 4,62 Гбайт
Продолжительность : 1 ч. 31 м.
Режим общего битрейта : Переменный
Общий поток : 7 223 Кбит/сек
Название фильма : Blood Born_(2021)
Дата кодирования : UTC 2021-07-22 12:50:05
Программа кодирования : mkvmerge v50.0.0 ('Awakenings') 64-bit
Библиотека кодирования : libebml v1.4.0 + libmatroska v1.6.2
Видео
Идентификатор : 1
Формат : AVC
Формат/Информация : Advanced Video Codec
Профиль формата : High@L4.1
Настройки формата : CABAC / 4 Ref Frames
Параметр CABAC формата : Да
Параметр RefFrames формата : 4 кадра
Идентификатор кодека : V_MPEG4/ISO/AVC
Продолжительность : 1 ч. 31 м.
Вид битрейта : Переменный
Битрейт : 6 901 Кбит/сек
Номинальный битрейт : 8 000 Кбит/сек
Максимальный битрейт : 8 000 Кбит/сек
Ширина : 1 920 пикселей
Высота : 1 080 пикселей
Соотношение сторон : 16:9
Режим частоты кадров : Постоянный
Частота кадров : 23,976 (24000/1001) кадра/сек
Стандарт вещания : Component
Цветовое пространство : YUV
Субдискретизация насыщенности : 4:2:0
Битовая глубина : 8 бит
Тип развёртки : Прогрессивная
Бит/(Пиксели*Кадры) : 0.139
Размер потока : 4,41 Гбайт (96%)
Заголовок : Anrif
Библиотека кодирования : x264 core 155
Настройки программы : cabac=1 / ref=4 / deblock=1:0:0 / analyse=0x3:0x3 / me=dia / subme=1 / psy=1 / psy_rd=1.00:0.00 / mixed_ref=0 / me_range=16 / chroma_me=1 / trellis=0 / 8x8dct=1 / cqm=1 / deadzone=21,11 / fast_pskip=1 / chroma_qp_offset=0 / threads=34 / lookahead_threads=5 / sliced_threads=0 / slices=1 / nr=0 / decimate=1 / interlaced=0 / minigop=0 / stitchable=1 / constrained_intra=0 / bframes=2 / b_pyramid=0 / b_adapt=0 / b_bias=0 / direct=1 / weightb=1 / open_gop=1 / weightp=0 / keyint=240 / keyint_min=23 / scenecut=40 / intra_refresh=0 / rc_lookahead=0 / rc=cbr / mbtree=0 / bitrate=8000 / ratetol=1.0 / qcomp=0.60 / qpmin=1 / qpmax=69 / qpstep=4 / vbv_maxrate=8000 / vbv_bufsize=8000 / nal_hrd=vbr / filler=0 / ip_ratio=1.40 / pb_ratio=1.30 / aq=1:1.00
Язык : English
Default : Нет
Forced : Нет
Цветовой диапазон : Limited
Основные цвета : BT.709
Характеристики трансфера : BT.709
Коэффициенты матрицы : BT.709
Аудио
Идентификатор : 2
Формат : AC-3
Формат/Информация : Audio Coding 3
Коммерческое название : Dolby Digital
Идентификатор кодека : A_AC3
Продолжительность : 1 ч. 31 м.
Вид битрейта : Постоянный
Битрейт : 320 Кбит/сек
Каналы : 2 канала
Channel layout : L R
Частота : 48,0 КГц
Частота кадров : 31,250 кадров/сек (1536 SPF)
Метод сжатия : С потерями
Размер потока : 210 Мбайт (4%)
Заголовок : (MVO - Синема УС)
Язык : Russian
Service kind : Complete Main
Default : Да
Forced : Да
Скриншоты: Все одноименные релизы в Клубе Время раздачи: с 18:00 до 24:00 (до первых 3-5 скачавших)
[Профиль] [ЛС]
Показать сообщения:    
Ответить на тему

Текущее время: 25-Фев 22:25

Часовой пояс: UTC ± 0



Вы не можете начинать темы
Вы не можете отвечать на сообщения
Вы не можете редактировать свои сообщения
Вы не можете удалять свои сообщения
Вы не можете голосовать в опросах
Вы не можете прикреплять файлы к сообщениям
Вы не можете скачивать файлы

[  Время выполнения: 0,043 сек  |  MySQL: 0,007 сек (17%) · 5 запр.  |  GZIP выкл  |  Память: 422,29 KB / 1,74 MB / 1,36 MB  |  Лимит: 9 10 13  ]