Побег из 2120 / Escape 2120 (2020) WEBRip [H.264/720p-LQ] [MVO] [AD]

Ответить на тему
 
Автор Сообщение

admin ®

Пол: Не указан

Стаж: 4 месяца 27 дня

Сообщений: 10110

Создавать темы 30-Янв-2024 13:58

[Цитировать]

Побег из 2120 / Escape 2120 (2020) WEBRip [H.264/720p-LQ]- Производство: США / Vireo Productions
Жанр: фантастика
Режиссер: Brian K Bennett
Актеры: Edward Pritchard, Samantha Ipema, Розмари Пачеко, Paul Kandarian, Дэвид Аффлик, Ulisses Gonsalves, Доминик Кансельер, Шила Болл, Grayson Alexander Miller, Пол Кулис
Описание:
Дэйв получает доступ к технологии, позволяющей путешествовать в будущее, используя для этого состояние анабиоза. Но оказавшись в утопическом мире будущего ему придётся столкнуться с гонениями, так как жители этого времени уверены, что он дитя дьявола.
Дата мировой премьеры: 13 июля 2020
Продолжительность: 01:46:45
Качество видео: WEBRip
Перевод: Многоголосый профессиональный (Синема УС)
Субтитры: Отсутствуют
Реклама: Присутствует баннер.
Видео: AVC/H.264, 1280x720, ~5179 Kbps
Аудио: AC-3, 2 ch, 384 Kbps

MediaInfo:

Общее
Полное имя : E:\NNM\Побег из 2120\Escape.2120.2020.WEB-DLRip.720p-LQ.mkv
Формат : Matroska
Версия формата : Version 2
Размер файла : 4,23 Гбайт
Продолжительность : 1 ч. 46 м.
Режим общего битрейта : Переменный
Общий поток : 5 676 Кбит/сек
Программа кодирования : libmatroska 1.4.1
Библиотека кодирования : SolveigMM Matroska Muxer Version 1.0.2010.29
Видео
Идентификатор : 1
Формат : AVC
Формат/Информация : Advanced Video Codec
Профиль формата : High@L4.1
Настройки формата : CABAC / 4 Ref Frames
Параметр CABAC формата : Да
Параметр RefFrames формата : 4 кадра
Идентификатор кодека : V_MPEG4/ISO/AVC
Продолжительность : 1 ч. 46 м.
Вид битрейта : Переменный
Битрейт : 5 179 Кбит/сек
Номинальный битрейт : 6 000 Кбит/сек
Максимальный битрейт : 6 000 Кбит/сек
Ширина : 1 280 пикселей
Высота : 720 пикселей
Соотношение сторон : 16:9
Режим частоты кадров : Постоянный
Частота кадров : 23,976 (24000/1001) кадра/сек
Стандарт вещания : Component
Цветовое пространство : YUV
Субдискретизация насыщенности : 4:2:0
Битовая глубина : 8 бит
Тип развёртки : Прогрессивная
Бит/(Пиксели*Кадры) : 0.234
Размер потока : 3,86 Гбайт (91%)
Default : Да
Forced : Нет
Цветовой диапазон : Limited
Основные цвета : BT.709
Характеристики трансфера : BT.709
Коэффициенты матрицы : BT.709
Аудио
Идентификатор : 2
Формат : AC-3
Формат/Информация : Audio Coding 3
Коммерческое название : Dolby Digital
Идентификатор кодека : A_AC3
Продолжительность : 1 ч. 46 м.
Вид битрейта : Постоянный
Битрейт : 384 Кбит/сек
Каналы : 2 канала
Channel layout : L R
Частота : 48,0 КГц
Частота кадров : 31,250 кадров/сек (1536 SPF)
Метод сжатия : С потерями
Размер потока : 293 Мбайт (7%)
Язык : Russian
Service kind : Complete Main
Default : Да
Forced : Нет
Скриншоты: Все одноименные релизы в КлубеВремя раздачи: 24/7 (до первых 3-5 скачавших)
[Профиль] [ЛС]
Показать сообщения:    
Ответить на тему

Текущее время: 25-Фев 19:03

Часовой пояс: UTC ± 0



Вы не можете начинать темы
Вы не можете отвечать на сообщения
Вы не можете редактировать свои сообщения
Вы не можете удалять свои сообщения
Вы не можете голосовать в опросах
Вы не можете прикреплять файлы к сообщениям
Вы не можете скачивать файлы

[  Время выполнения: 0,039 сек  |  MySQL: 0,003 сек (7%) · 3 запр.  |  GZIP выкл  |  Память: 422,29 KB / 1,74 MB / 1,34 MB  |  Лимит: 18 20 19  ]