Ледяной драйв / The Ice Road (2021) WEB-DLRip [Line, AD]

Ответить на тему
 
Автор Сообщение

admin ®

Пол: Не указан

Стаж: 5 месяца

Сообщений: 10110

Создавать темы 30-Янв-2024 13:58

[Цитировать]

Ледяной драйв / The Ice Road (2021) WEB-DLRip - Производство: США / Aperture Media Partners, Code Entertainment, Envision Media Arts, Ice Road Productions, Manitoba Film & Music, ShivHans Pictures, Solution Entertainment Group
Жанр: боевик, триллер
Режиссер: Джонатан Хенсли
Продюсер: Аль Корли, Юджин Муссо, Ли Нельсон
Актеры: Лиам Нисон, Маркус Томас, Лоуренс Фишборн, Эмбер Мидфандер, Бенджамин Уокер, Холт Маккэллани, Мэтт МакКой, Мартин Сенсмейер, Мэтт Сэлинджер, Чад Брюс
Описание:
Север Канады. Ненадёжный апрельский лёд, вес грузовика — 33 тонны. Проехать по замерзшей поверхности озера возможно только на определенной скорости, а остановка или ускорение означают верную смерть. Но именно такая задача стоит перед колонной грузовиков — только они могут спасти людей, оказавшихся в обрушившейся алмазной шахте. Однако ни трескающийся под колёсами лёд, ни снежная буря не сравнятся с испытаниями, которые ждут водителей впереди.
Возраст: 16+ (зрителям, достигшим 16 лет)
Рейтинг MPAA: PG-13 (детям до 13 лет просмотр нежелателен)
Дата мировой премьеры: 25 июня 2021
Дата российской премьеры: 25 июня 2021, «Вольга»
Продолжительность: 01:49:14
Качество видео: WEB-DLRip
Перевод: Дублированный (Line)
Субтитры: Отсутствуют
Реклама: Присутствует баннер!
Видео: XviD, 720x304, 1519 kbps
Аудио: АС3, 2 ch, 256 Kbps - Русский (DUB, Line)

MediaInfo:

Общее
Полное имя : F:\[Anf]_The Ice Road_(2021)_WEB-DLRip.avi
Формат : AVI
Формат/Информация : Audio Video Interleave
Профиль формата : OpenDML
Размер файла : 1,36 Гбайт
Продолжительность : 1 ч. 49 м.
Общий поток : 1 788 Кбит/сек
Видео
Идентификатор : 0
Формат : MPEG-4 Visual
Профиль формата : Advanced Simple@L5
Настройки формата : BVOP2
Параметр BVOP формата : 2
Параметр QPel формата : Нет
Параметр GMC формата : Без точки перехода
Параметр матрицы формата : Default (H.263)
Идентификатор кодека : XVID
Идентификатор кодека/Подсказка : XviD
Продолжительность : 1 ч. 49 м.
Битрейт : 1 519 Кбит/сек
Ширина : 720 пикселей
Высота : 304 пикселя
Соотношение сторон : 2,35:1
Частота кадров : 23,976 (24000/1001) кадра/сек
Цветовое пространство : YUV
Субдискретизация насыщенности : 4:2:0
Битовая глубина : 4 бит
Тип развёртки : Прогрессивная
Метод сжатия : С потерями
Бит/(Пиксели*Кадры) : 0.290
Размер потока : 1,16 Гбайт (85%)
Библиотека кодирования : XviD 1.2.1 (UTC 2008-12-04)
Аудио
Идентификатор : 1
Формат : AC-3
Формат/Информация : Audio Coding 3
Коммерческое название : Dolby Digital
Идентификатор кодека : 2000
Продолжительность : 1 ч. 49 м.
Вид битрейта : Постоянный
Битрейт : 256 Кбит/сек
Каналы : 2 канала
Channel layout : L R
Частота : 48,0 КГц
Частота кадров : 31,250 кадров/сек (1536 SPF)
Метод сжатия : С потерями
Размер потока : 200 Мбайт (14%)
Выравнивание : Соединение по промежуткам
Продолжительность промежутка : 32 мс. (0,77 видеокадр)
Service kind : Complete Main

Дополнительно:

Места с тишиной - зачищена звуковая реклама!
Скриншоты: Все одноименные релизы в Клубе Время раздачи: с 18:00 до 24:00 (до первых 3-5 скачавших)Нажмёте мне будет очень приятно
[Профиль] [ЛС]
Показать сообщения:    
Ответить на тему

Текущее время: 28-Фев 21:50

Часовой пояс: UTC ± 0



Вы не можете начинать темы
Вы не можете отвечать на сообщения
Вы не можете редактировать свои сообщения
Вы не можете удалять свои сообщения
Вы не можете голосовать в опросах
Вы не можете прикреплять файлы к сообщениям
Вы не можете скачивать файлы

[  Время выполнения: 0,028 сек  |  MySQL: 0,004 сек (16%) · 5 запр.  |  GZIP выкл  |  Память: 422,28 KB / 1,73 MB / 1,34 MB  |  Лимит: 17 16 15  ]