Оранжерея / The Greenhouse (2021) WEB-DL [H.264/1080p-LQ] [MVO, AD]

Ответить на тему
 
Автор Сообщение

admin ®

Пол: Не указан

Стаж: 4 месяца 27 дня

Сообщений: 10110

Создавать темы 30-Янв-2024 13:58

[Цитировать]

Оранжерея / The Greenhouse (2021) WEB-DL [H.264/1080p-LQ] - Производство: Австралия / Everyone We Know
Жанр: драма
Режиссер: Том Уилсон
Продюсер: Elizabeth Cater, Jemma Douglas
Актеры: Рондда Финдлтон, Lincoln Vickery, Камилла Ах Ким, Грэйс Виктория, Jane Watt, Шив Палекар, Joel Horwood, Tel Benjamin, Harriet Gordon-Anderson, Kirsty Marillier
Описание:
Оплакивая смерть своей матери Лиллиан, Бет находит в лесу портал в прошлое. Видения из счастливого детства в окружении трёх братьев, сестры и двух любящих мам, затуманивают разум Бет, закрывая пеленой опасности, что поджидают её впереди.
Продолжительность: 01:29:21
Качество видео: WEB-DL
Перевод: Любительский многоголосный (ALPHAPROJECT)
Язык озвучки: Русский
Субтитры: Отсутствуют
Реклама: Присутствует баннер!
Видео: AVC/H.264, 1916х860, ~6813 kbps
Аудио 1: AC3, 2 ch, 320 kbps - Русский (MVO, ALPHAPROJECT)
Аудио 2: AAC, 2 ch, 384 kbps - Русский (MVO, ALPHAPROJECT)

MediaInfo:

Общее
Уникальный идентификатор : 215758749092788747704451815283267821573 (0xA2519FA1E628001DF058C7C85B256005)
Полное имя : F:\[Anf]_The Greenhouse_(2021)_WEB-DL_[1080p-LQ].mkv
Формат : Matroska
Версия формата : Version 4
Размер файла : 4,69 Гбайт
Продолжительность : 1 ч. 29 м.
Режим общего битрейта : Переменный
Общий поток : 7 517 Кбит/сек
Название фильма : The Greenhouse_(2021)
Дата кодирования : UTC 2021-06-30 16:52:05
Программа кодирования : mkvmerge v50.0.0 ('Awakenings') 64-bit
Библиотека кодирования : libebml v1.4.0 + libmatroska v1.6.2
Видео
Идентификатор : 1
Формат : AVC
Формат/Информация : Advanced Video Codec
Профиль формата : High@L4.1
Настройки формата : CABAC / 4 Ref Frames
Параметр CABAC формата : Да
Параметр RefFrames формата : 4 кадра
Идентификатор кодека : V_MPEG4/ISO/AVC
Продолжительность : 1 ч. 29 м.
Вид битрейта : Переменный
Битрейт : 6 813 Кбит/сек
Максимальный битрейт : 8 000 Кбит/сек
Ширина : 1 916 пикселей
Высота : 860 пикселей
Соотношение сторон : 2,228
Режим частоты кадров : Постоянный
Частота кадров : 23,976 (24000/1001) кадра/сек
Стандарт вещания : Component
Цветовое пространство : YUV
Субдискретизация насыщенности : 4:2:0
Битовая глубина : 8 бит
Тип развёртки : Прогрессивная
Бит/(Пиксели*Кадры) : 0.172
Размер потока : 4,25 Гбайт (91%)
Default : Нет
Forced : Нет
Цветовой диапазон : Limited
Основные цвета : BT.709
Характеристики трансфера : BT.709
Коэффициенты матрицы : BT.709
Аудио #1
Идентификатор : 2
Формат : AC-3
Формат/Информация : Audio Coding 3
Коммерческое название : Dolby Digital
Идентификатор кодека : A_AC3
Продолжительность : 1 ч. 29 м.
Вид битрейта : Постоянный
Битрейт : 320 Кбит/сек
Каналы : 2 канала
Channel layout : L R
Частота : 48,0 КГц
Частота кадров : 31,250 кадров/сек (1536 SPF)
Метод сжатия : С потерями
Размер потока : 205 Мбайт (4%)
Заголовок : (AC3, MVO, ALPHAPROJECT)
Язык : Russian
Service kind : Complete Main
Default : Да
Forced : Нет
Аудио #2
Идентификатор : 3
Формат : AAC Main
Формат/Информация : Advanced Audio Codec
Идентификатор кодека : A_AAC-1
Продолжительность : 1 ч. 29 м.
Битрейт : 384 Кбит/сек
Каналы : 2 канала
Channel layout : L R
Частота : 48,0 КГц
Частота кадров : 46,875 кадров/сек (1024 SPF)
Метод сжатия : С потерями
Размер потока : 244 Мбайт (5%)
Заголовок : (AAC, MVO, ALPHAPROJECT)
Язык : Russian
Default : Нет
Forced : Нет
Скриншоты: Все одноименные релизы в Клубе Время раздачи: с 18:00 до 24:00 (до первых 3-5 скачавших)Нажмёте мне будет очень приятно
[Профиль] [ЛС]
Показать сообщения:    
Ответить на тему

Текущее время: 25-Фев 18:09

Часовой пояс: UTC ± 0



Вы не можете начинать темы
Вы не можете отвечать на сообщения
Вы не можете редактировать свои сообщения
Вы не можете удалять свои сообщения
Вы не можете голосовать в опросах
Вы не можете прикреплять файлы к сообщениям
Вы не можете скачивать файлы

[  Время выполнения: 0,041 сек  |  MySQL: 0,004 сек (10%) · 3 запр.  |  GZIP выкл  |  Память: 422,29 KB / 1,74 MB / 1,34 MB  |  Лимит: 13 10 9  ]