Инопланетное вторжение / Alien Conquest (2021) WEB-DLRip [H.264] [MVO, AD]

Ответить на тему
 
Автор Сообщение

admin ®

Пол: Не указан

Стаж: 7 месяца 26 дня

Сообщений: 11520

Создавать темы 30-Янв-2024 13:57

[Цитировать]

Инопланетное вторжение / Alien Conquest (2021) WEB-DLRip [H.264] - Производство: США / Global Asylum
Жанр: фантастика, боевик
Режиссер: Mario N. Bonassin
Продюсер: Пол Бейлс, Дэвид Майкл Лэтт
Актеры: Эмили Киллиан, Энтони Дженсен, Том Сайзмор, Майкл Деворзон, Emma Nasfell, DeAngelo Davis, Полина Нгуен, Торри Ричардсон, Крэйг Геллис, Джек Пирсон
Описание:
Астрономы брат и сестра обнаруживают, что марсиане угрожают атаковать Землю, но никто не верит в их предупреждение - пока марсиане не высадятся и не уничтожат почти весь Нью-Йорк...
Дата мировой премьеры: 26 февраля 2021
Продолжительность: 01:27:12
Качество видео: WEB-DLRip
Перевод: Любительский многоголосный (Синема УС)
Язык озвучки: Русский
Субтитры: Отсутствуют
Реклама: Присутствует баннер!
Видео: AVC/H.264, 1024х432, ~2762 kbps
Аудио: AC3, 2 ch, 320 kbps - Русский (MVO,Синема УС)
Аудио: AAC, 2 ch, 384 kbps - Русский (MVO,Синема УС)

MediaInfo:

Общее
Уникальный идентификатор : 117694897554173931687238361913190255056 (0x588B3676CAAB6E772F3439369DEC09D0)
Полное имя : F:\[Anf]_Alien Conquest_(2021)_WEB-DLRip_[720p-LQ].mkv
Формат : Matroska
Версия формата : Version 4
Размер файла : 2,11 Гбайт
Продолжительность : 1 ч. 27 м.
Режим общего битрейта : Переменный
Общий поток : 3 466 Кбит/сек
Название фильма : Alien Conquest_(2021)
Дата кодирования : UTC 2021-07-02 17:02:04
Программа кодирования : mkvmerge v50.0.0 ('Awakenings') 64-bit
Библиотека кодирования : libebml v1.4.0 + libmatroska v1.6.2
Видео
Идентификатор : 1
Формат : AVC
Формат/Информация : Advanced Video Codec
Профиль формата : High@L4.1
Настройки формата : CABAC / 4 Ref Frames
Параметр CABAC формата : Да
Параметр RefFrames формата : 4 кадра
Идентификатор кодека : V_MPEG4/ISO/AVC
Продолжительность : 1 ч. 27 м.
Вид битрейта : Переменный
Битрейт : 2 762 Кбит/сек
Максимальный битрейт : 3 000 Кбит/сек
Ширина : 1 024 пикселя
Высота : 432 пикселя
Соотношение сторон : 2,40:1
Режим частоты кадров : Постоянный
Частота кадров : 23,976 (24000/1001) кадра/сек
Стандарт вещания : Component
Цветовое пространство : YUV
Субдискретизация насыщенности : 4:2:0
Битовая глубина : 8 бит
Тип развёртки : Прогрессивная
Бит/(Пиксели*Кадры) : 0.260
Размер потока : 1,68 Гбайт (80%)
Default : Нет
Forced : Нет
Цветовой диапазон : Limited
Основные цвета : BT.709
Характеристики трансфера : BT.709
Коэффициенты матрицы : BT.709
Аудио #1
Идентификатор : 2
Формат : AC-3
Формат/Информация : Audio Coding 3
Коммерческое название : Dolby Digital
Идентификатор кодека : A_AC3
Продолжительность : 1 ч. 27 м.
Вид битрейта : Постоянный
Битрейт : 320 Кбит/сек
Каналы : 2 канала
Channel layout : L R
Частота : 48,0 КГц
Частота кадров : 31,250 кадров/сек (1536 SPF)
Метод сжатия : С потерями
Размер потока : 200 Мбайт (9%)
Заголовок : (AC3, MVO,Синема УС)
Язык : Russian
Service kind : Complete Main
Default : Да
Forced : Нет
Аудио #2
Идентификатор : 3
Формат : AAC Main
Формат/Информация : Advanced Audio Codec
Идентификатор кодека : A_AAC-1
Продолжительность : 1 ч. 27 м.
Битрейт : 384 Кбит/сек
Каналы : 2 канала
Channel layout : L R
Частота : 48,0 КГц
Частота кадров : 46,875 кадров/сек (1024 SPF)
Метод сжатия : С потерями
Размер потока : 238 Мбайт (11%)
Заголовок : (AAC, MVO,Синема УС)
Язык : Russian
Default : Нет
Forced : Нет
Скриншоты: Все одноименные релизы в Клубе Время раздачи: с 18:00 до 24:00 (до первых 3-5 скачавших)Нажмёте мне будет очень приятно
[Профиль] [ЛС]
Показать сообщения:    
Ответить на тему

Текущее время: 24-Май 13:37

Часовой пояс: UTC ± 0



Вы не можете начинать темы
Вы не можете отвечать на сообщения
Вы не можете редактировать свои сообщения
Вы не можете удалять свои сообщения
Вы не можете голосовать в опросах
Вы не можете прикреплять файлы к сообщениям
Вы не можете скачивать файлы

[  Время выполнения: 0,033 сек  |  MySQL: 0,003 сек (8%) · 3 запр.  |  GZIP выкл  |  Память: 422,29 KB / 1,74 MB / 1,34 MB  |  Лимит: 16 15 14  ]