Комитет Бога / The God Committee (2021) WEB-DL [H.264/1080p-LQ] [MVO, AD]

Ответить на тему
 
Автор Сообщение

admin ®

Пол: Не указан

Стаж: 6 месяца 22 дня

Сообщений: 11520

Создавать темы 30-Янв-2024 13:57

[Цитировать]

Комитет Бога / The God Committee (2021) WEB-DL [H.264/1080p-LQ] - Производство: США / Crystal City Entertainment, Paper Street Films, Phiphen Pictures
Жанр: триллер
Режиссер: Остин Старк
Продюсер: Молли Коннерс, Аманда Бауэрс
Актеры: Джулия Стайлз, Джанин Гарофало, Келси Грэммер, Колман Доминго, Дэн Хедайя, Элизабет Масуччи, Каролин Лагерфельт, Патриция Мосери, Питер Й. Ким, Уинтер Каллмен
Описание:
У комитета по трансплантации органов есть один час, чтобы решить, кто из трех пациентов заслуживает спасительного сердца. Семь лет спустя члены комитета борются с последствиями этого судьбоносного решения.
Дата мировой премьеры: 20 июня 2021
Продолжительность: 01:38:20
Качество видео: WEB-DL
Перевод: Любительский многоголоcый (MUZOBOZ)
Язык озвучки: Русский
Субтитры: Отсутствуют
Реклама: Присутствует баннер!
Видео: AVC/H.264, 1912x796, ~8005 kbps
Аудио 1: AC3, 2 ch, 320 kbps - Русский (MVO, MUZOBOZ)
Аудио 2: AAC, 2 ch, 384 kbps - Русский (MVO, MUZOBOZ)

MediaInfo:

Общее
Уникальный идентификатор : 294393376097046987448895982216858969330 (0xDD7A1A128B352EC8C8D427E958D224F2)
Полное имя : F:\[Anf]_The God Committee_(2021)_WEB-DL_[1080p-LQ].mkv
Формат : Matroska
Версия формата : Version 4
Размер файла : 5,98 Гбайт
Продолжительность : 1 ч. 38 м.
Режим общего битрейта : Переменный
Общий поток : 8 709 Кбит/сек
Название фильма : The God Committee_(2021)
Дата кодирования : UTC 2021-07-03 15:21:35
Программа кодирования : mkvmerge v50.0.0 ('Awakenings') 64-bit
Библиотека кодирования : libebml v1.4.0 + libmatroska v1.6.2
Видео
Идентификатор : 1
Формат : AVC
Формат/Информация : Advanced Video Codec
Профиль формата : High@L4.1
Настройки формата : CABAC / 4 Ref Frames
Параметр CABAC формата : Да
Параметр RefFrames формата : 4 кадра
Идентификатор кодека : V_MPEG4/ISO/AVC
Продолжительность : 1 ч. 38 м.
Вид битрейта : Переменный
Битрейт : 8 005 Кбит/сек
Номинальный битрейт : 9 000 Кбит/сек
Максимальный битрейт : 9 000 Кбит/сек
Ширина : 1 912 пикселей
Высота : 796 пикселей
Соотношение сторон : 2,40:1
Режим частоты кадров : Постоянный
Частота кадров : 23,976 (24000/1001) кадра/сек
Стандарт вещания : Component
Цветовое пространство : YUV
Субдискретизация насыщенности : 4:2:0
Битовая глубина : 8 бит
Тип развёртки : Прогрессивная
Бит/(Пиксели*Кадры) : 0.219
Размер потока : 5,50 Гбайт (92%)
Библиотека кодирования : x264 core 155
Настройки программы : cabac=1 / ref=4 / deblock=1:0:0 / analyse=0x3:0x3 / me=dia / subme=1 / psy=1 / psy_rd=1.00:0.00 / mixed_ref=0 / me_range=16 / chroma_me=1 / trellis=0 / 8x8dct=1 / cqm=1 / deadzone=21,11 / fast_pskip=1 / chroma_qp_offset=0 / threads=25 / lookahead_threads=4 / sliced_threads=0 / slices=1 / nr=0 / decimate=1 / interlaced=0 / minigop=0 / stitchable=1 / constrained_intra=0 / bframes=2 / b_pyramid=0 / b_adapt=0 / b_bias=0 / direct=1 / weightb=1 / open_gop=1 / weightp=0 / keyint=240 / keyint_min=23 / scenecut=40 / intra_refresh=0 / rc_lookahead=0 / rc=cbr / mbtree=0 / bitrate=9000 / ratetol=1.0 / qcomp=0.60 / qpmin=1 / qpmax=69 / qpstep=4 / vbv_maxrate=9000 / vbv_bufsize=9000 / nal_hrd=vbr / filler=0 / ip_ratio=1.40 / pb_ratio=1.30 / aq=1:1.00
Default : Нет
Forced : Нет
Цветовой диапазон : Limited
Основные цвета : BT.709
Характеристики трансфера : BT.709
Коэффициенты матрицы : BT.709
Аудио #1
Идентификатор : 2
Формат : AC-3
Формат/Информация : Audio Coding 3
Коммерческое название : Dolby Digital
Идентификатор кодека : A_AC3
Продолжительность : 1 ч. 38 м.
Вид битрейта : Постоянный
Битрейт : 320 Кбит/сек
Каналы : 2 канала
Channel layout : L R
Частота : 48,0 КГц
Частота кадров : 31,250 кадров/сек (1536 SPF)
Метод сжатия : С потерями
Размер потока : 225 Мбайт (4%)
Заголовок : (AC3, MVO, MUZOBOZ)
Язык : Russian
Service kind : Complete Main
Default : Да
Forced : Нет
Аудио #2
Идентификатор : 3
Формат : AAC Main
Формат/Информация : Advanced Audio Codec
Идентификатор кодека : A_AAC-1
Продолжительность : 1 ч. 38 м.
Битрейт : 384 Кбит/сек
Каналы : 2 канала
Channel layout : L R
Частота : 48,0 КГц
Частота кадров : 46,875 кадров/сек (1024 SPF)
Метод сжатия : С потерями
Размер потока : 268 Мбайт (4%)
Заголовок : (AAC, MVO, MUZOBOZ)
Язык : Russian
Default : Нет
Forced : Нет
Скриншоты: Все одноименные релизы в Клубе Время раздачи: с 18:00 до 24:00 (до первых 3-5 скачавших)Нажмёте мне будет очень приятно
[Профиль] [ЛС]
Показать сообщения:    
Ответить на тему

Текущее время: 20-Апр 20:07

Часовой пояс: UTC ± 0



Вы не можете начинать темы
Вы не можете отвечать на сообщения
Вы не можете редактировать свои сообщения
Вы не можете удалять свои сообщения
Вы не можете голосовать в опросах
Вы не можете прикреплять файлы к сообщениям
Вы не можете скачивать файлы

[  Время выполнения: 0,040 сек  |  MySQL: 0,003 сек (8%) · 3 запр.  |  GZIP выкл  |  Память: 422,29 KB / 1,74 MB / 1,36 MB  |  Лимит: 4 4 5  ]