За гранью жизни / Out of Death (2021) WEBRip [H.264/1080p-LQ] [MVO, AD]

Ответить на тему
 
Автор Сообщение

admin ®

Пол: Не указан

Стаж: 5 месяца

Сообщений: 10110

Создавать темы 30-Янв-2024 13:57

[Цитировать]

За гранью жизни / Out of Death (2021) WEBRip [H.264/1080p-LQ] - Производство: США / BondIt, Buffalo 8 Productions, Emmett/Furla Films, River Bay Films, SSS Entertainment, Verdi Productions
Жанр: криминал, триллер
Режиссер: Майк Бёрнс
Продюсер: Рэндолл Эмметт, Джордж Фурла, Лидия Халл
Актеры: Джейми Кинг, Брюс Уиллис, Лорин Кент, Келли Грейсон, Тайлер Джон Олсон, Меган Леонард, Майкл Сироу, Кайла Эва, Оливер Тревена
Описание:
Фотограф Шеннон Мэтерс невольно становится свидетелем сделки с наркотиками, во время которой полицейские убивают неизвестного. Она успевает сделать несколько снимков, но ее засекают. Шеннон удается бежать, но преступные копы идут за ней по пятам. Егерь Джек Харрис, офицер полиции в отставке, помогает ей укрыться от преследования, но можно ли доверять ему?
Возраст: 18+ (зрителям, достигшим 18 лет. запрещено для детей)
Рейтинг MPAA: R (лицам до 17 лет обязательно присутствие взрослого)
Дата мировой премьеры: 16 июля 2021,
Дата российской премьеры: 29 июля 2021, «Парадиз»
Продолжительность: 01:35:25
Качество видео: WEBRip
Перевод: Любительский многоголосый (ALPHAPROJECT)
Язык озвучки: Русский
Субтитры: Отсутствуют
Реклама: Присутствует баннер!
Видео: AVC/H.264, 1920x800, ~7802 kbps
Аудио: AС3, 2 ch, 320 kbps - Русский (MVO, ALPHAPROJECT)
Аудио: AAC, 2 ch, 384 kbps - Русский (MVO, ALPHAPROJECT)

MediaInfo:

Общее
Уникальный идентификатор : 235527305873958584957115988102567755133 (0xB130E8BB74B9602102688DDD178CFD7D)
Полное имя : F:\[Anf]_Out of Death_(2021)_WEBRip_[1080p-LQ].mkv
Формат : Matroska
Версия формата : Version 4
Размер файла : 5,67 Гбайт
Продолжительность : 1 ч. 35 м.
Режим общего битрейта : Переменный
Общий поток : 8 506 Кбит/сек
Название фильма : Out of Death_(2021)
Дата кодирования : UTC 2021-07-06 15:50:33
Программа кодирования : mkvmerge v50.0.0 ('Awakenings') 64-bit
Библиотека кодирования : libebml v1.4.0 + libmatroska v1.6.2
Видео
Идентификатор : 1
Формат : AVC
Формат/Информация : Advanced Video Codec
Профиль формата : High@L4.1
Настройки формата : CABAC / 4 Ref Frames
Параметр CABAC формата : Да
Параметр RefFrames формата : 4 кадра
Идентификатор кодека : V_MPEG4/ISO/AVC
Продолжительность : 1 ч. 35 м.
Вид битрейта : Переменный
Битрейт : 7 802 Кбит/сек
Номинальный битрейт : 9 000 Кбит/сек
Максимальный битрейт : 9 000 Кбит/сек
Ширина : 1 920 пикселей
Высота : 800 пикселей
Соотношение сторон : 2,40:1
Режим частоты кадров : Постоянный
Частота кадров : 23,976 (24000/1001) кадра/сек
Стандарт вещания : Component
Цветовое пространство : YUV
Субдискретизация насыщенности : 4:2:0
Битовая глубина : 8 бит
Тип развёртки : Прогрессивная
Бит/(Пиксели*Кадры) : 0.212
Размер потока : 5,20 Гбайт (92%)
Библиотека кодирования : x264 core 155
Настройки программы : cabac=1 / ref=4 / deblock=1:0:0 / analyse=0x3:0x3 / me=dia / subme=1 / psy=1 / psy_rd=1.00:0.00 / mixed_ref=0 / me_range=16 / chroma_me=1 / trellis=0 / 8x8dct=1 / cqm=1 / deadzone=21,11 / fast_pskip=1 / chroma_qp_offset=0 / threads=25 / lookahead_threads=4 / sliced_threads=0 / slices=1 / nr=0 / decimate=1 / interlaced=0 / minigop=0 / stitchable=1 / constrained_intra=0 / bframes=2 / b_pyramid=0 / b_adapt=0 / b_bias=0 / direct=1 / weightb=1 / open_gop=1 / weightp=0 / keyint=240 / keyint_min=23 / scenecut=40 / intra_refresh=0 / rc_lookahead=0 / rc=cbr / mbtree=0 / bitrate=9000 / ratetol=1.0 / qcomp=0.60 / qpmin=1 / qpmax=69 / qpstep=4 / vbv_maxrate=9000 / vbv_bufsize=9000 / nal_hrd=vbr / filler=0 / ip_ratio=1.40 / pb_ratio=1.30 / aq=1:1.00
Default : Нет
Forced : Нет
Цветовой диапазон : Limited
Основные цвета : BT.709
Характеристики трансфера : BT.709
Коэффициенты матрицы : BT.709
Аудио #1
Идентификатор : 2
Формат : AC-3
Формат/Информация : Audio Coding 3
Коммерческое название : Dolby Digital
Идентификатор кодека : A_AC3
Продолжительность : 1 ч. 35 м.
Вид битрейта : Постоянный
Битрейт : 320 Кбит/сек
Каналы : 2 канала
Channel layout : L R
Частота : 48,0 КГц
Частота кадров : 31,250 кадров/сек (1536 SPF)
Метод сжатия : С потерями
Размер потока : 218 Мбайт (4%)
Заголовок : (AC-3, MVO, ALPHAPROJECT)
Язык : Russian
Service kind : Complete Main
Default : Да
Forced : Да
Аудио #2
Идентификатор : 3
Формат : AAC Main
Формат/Информация : Advanced Audio Codec
Идентификатор кодека : A_AAC-1
Продолжительность : 1 ч. 35 м.
Битрейт : 384 Кбит/сек
Каналы : 2 канала
Channel layout : L R
Частота : 48,0 КГц
Частота кадров : 46,875 кадров/сек (1024 SPF)
Метод сжатия : С потерями
Размер потока : 260 Мбайт (4%)
Заголовок : (AAC, MVO, ALPHAPROJECT)
Язык : Russian
Default : Нет
Forced : Нет
Скриншоты: Все одноименные релизы в Клубе Время раздачи: с 18:00 до 24:00 (до первых 3-5 скачавших)Нажмёте мне будет очень приятно
[Профиль] [ЛС]
Показать сообщения:    
Ответить на тему

Текущее время: 28-Фев 23:19

Часовой пояс: UTC ± 0



Вы не можете начинать темы
Вы не можете отвечать на сообщения
Вы не можете редактировать свои сообщения
Вы не можете удалять свои сообщения
Вы не можете голосовать в опросах
Вы не можете прикреплять файлы к сообщениям
Вы не можете скачивать файлы

[  Время выполнения: 0,041 сек  |  MySQL: 0,004 сек (11%) · 3 запр.  |  GZIP выкл  |  Память: 422,29 KB / 1,75 MB / 1,37 MB  |  Лимит: 11 10 10  ]