Гнездо / The Bewailing (The Nest) (2021) WEB-DLRip [H.264/1080p-LQ] [MVO, AD]

Ответить на тему
 
Автор Сообщение

admin ®

Пол: Не указан

Стаж: 4 месяца 23 дня

Сообщений: 10110

Создавать темы 30-Янв-2024 13:56

[Цитировать]

Гнездо / The Bewailing (The Nest) (2021) WEB-DLRip [H.264/1080p-LQ] - Производство: США / Suttlefilm and Media
Жанр: триллер
Режиссер: Джеймс Сеттлс
Продюсер: Мэттью Р. Збойовски, Джеймс Сеттлс
Актеры: Ди Уоллес-Стоун, Сара Навратил, Maple Suttles, Кевин Патрик Мёрфи, Drez Ryan, Блак Фаулер, Anna Lynn Holleman, Penny Munroe, Piper Suttles
Описание:
Хрупкая реальность Бэт начинает трещать по швам, как только у её дочери Мэг, развивается тревожное расстройство из-за разлуки с ней. Поведение Мэг становится всё более непредсказуемым и единственное, в чём малышка видит утешение – плюшевый медвежонок Рикки. Однако, безобидная игрушка вызывает у Бэт кошмарные видения, грозящие поглотить её семью и рассудок.
Дата мировой премьеры: 29 мая 2021
Продолжительность: 01:39:40
Качество видео: WEB-DLRip
Перевод: Любительский многоголосый (MUZOBOZ)
Язык озвучки: Русский
Субтитры: Отсутствуют
Реклама: Присутствует баннер!
Видео: AVC/H.264, 1912x798, ~7107 kbps
Аудио: AС3, 2 ch, 320 kbps - Русский (MVO, MUZOBOZ)
Аудио: AAC, 2 ch, 384 kbps - Русский (MVO, MUZOBOZ)

MediaInfo:

Общее
Уникальный идентификатор : 4086003614903802887372923992702219907 (0x312EF882A8E0358B2A29A63C4F87683)
Полное имя : F:\[Anf]_The Bewailing (The Nest)_(2021)_WEB-DLRip_[1080p-LQ].mkv
Формат : Matroska
Версия формата : Version 4
Размер файла : 5,44 Гбайт
Продолжительность : 1 ч. 39 м.
Режим общего битрейта : Переменный
Общий поток : 7 810 Кбит/сек
Название фильма : The Bewailing (The Nest)_(2021)
Дата кодирования : UTC 2021-07-09 05:16:50
Программа кодирования : mkvmerge v50.0.0 ('Awakenings') 64-bit
Библиотека кодирования : libebml v1.4.0 + libmatroska v1.6.2
Видео
Идентификатор : 1
Формат : AVC
Формат/Информация : Advanced Video Codec
Профиль формата : High@L4.1
Настройки формата : CABAC / 4 Ref Frames
Параметр CABAC формата : Да
Параметр RefFrames формата : 4 кадра
Идентификатор кодека : V_MPEG4/ISO/AVC
Продолжительность : 1 ч. 39 м.
Вид битрейта : Переменный
Битрейт : 7 107 Кбит/сек
Максимальный битрейт : 8 000 Кбит/сек
Ширина : 1 912 пикселей
Высота : 798 пикселей
Соотношение сторон : 2,40:1
Режим частоты кадров : Постоянный
Частота кадров : 23,976 (24000/1001) кадра/сек
Стандарт вещания : Component
Цветовое пространство : YUV
Субдискретизация насыщенности : 4:2:0
Битовая глубина : 8 бит
Тип развёртки : Прогрессивная
Бит/(Пиксели*Кадры) : 0.194
Размер потока : 4,95 Гбайт (91%)
Default : Нет
Forced : Нет
Цветовой диапазон : Limited
Основные цвета : BT.709
Характеристики трансфера : BT.709
Коэффициенты матрицы : BT.709
Аудио #1
Идентификатор : 2
Формат : AC-3
Формат/Информация : Audio Coding 3
Коммерческое название : Dolby Digital
Идентификатор кодека : A_AC3
Продолжительность : 1 ч. 39 м.
Вид битрейта : Постоянный
Битрейт : 320 Кбит/сек
Каналы : 2 канала
Channel layout : L R
Частота : 48,0 КГц
Частота кадров : 31,250 кадров/сек (1536 SPF)
Метод сжатия : С потерями
Задержка видео : 5 мс.
Размер потока : 228 Мбайт (4%)
Заголовок : (AC-3, MVO, MUZOBOZ)
Язык : Russian
Service kind : Complete Main
Default : Да
Forced : Да
Аудио #2
Идентификатор : 3
Формат : AAC Main
Формат/Информация : Advanced Audio Codec
Идентификатор кодека : A_AAC-1
Продолжительность : 1 ч. 39 м.
Битрейт : 384 Кбит/сек
Каналы : 2 канала
Channel layout : L R
Частота : 48,0 КГц
Частота кадров : 46,875 кадров/сек (1024 SPF)
Метод сжатия : С потерями
Задержка видео : 5 мс.
Размер потока : 272 Мбайт (5%)
Заголовок : (AAC, MVO, MUZOBOZ)
Язык : Russian
Default : Нет
Forced : Нет
Скриншоты: Все одноименные релизы в Клубе Время раздачи: с 18:00 до 24:00 (до первых 3-5 скачавших)Нажмёте мне будет очень приятно
[Профиль] [ЛС]
Показать сообщения:    
Ответить на тему

Текущее время: 22-Фев 00:36

Часовой пояс: UTC ± 0



Вы не можете начинать темы
Вы не можете отвечать на сообщения
Вы не можете редактировать свои сообщения
Вы не можете удалять свои сообщения
Вы не можете голосовать в опросах
Вы не можете прикреплять файлы к сообщениям
Вы не можете скачивать файлы

[  Время выполнения: 0,035 сек  |  MySQL: 0,004 сек (10%) · 3 запр.  |  GZIP выкл  |  Память: 421,85 KB / 1,74 MB / 1,36 MB  |  Лимит: 18 17 15  ]