Чёрная Вдова / Black Widow (2021) WEB-DLRip [Line, AD]

Ответить на тему
 
Автор Сообщение

admin ®

Пол: Не указан

Стаж: 5 месяца 1 день

Сообщений: 10110

Создавать темы 30-Янв-2024 13:56

[Цитировать]

Чёрная Вдова / Black Widow (2021) WEB-DLRip - Производство: США / Marvel Studios Inc.
Жанр: фантастика, боевик, приключения
Режиссер: Кейт Шортланд
Продюсер: Закария Алауи, Виктория Алонсо, Митчелл Белл
Актеры: Скарлетт Йоханссон, Флоренс Пью, Дэвид Харбор, О. Т. Фагбенли, Ольга Куриленко, Уильям Хёрт, Рэй Уинстон, Рэйчел Вайс, Эвер Андерсон, Виолет Макгроу
Описание:
Наташе Романофф предстоит лицом к лицу встретиться со своим прошлым. Чёрной Вдове придется вспомнить о том, что было в её жизни задолго до присоединения к команде Мстителей, и узнать об опасном заговоре, в который оказываются втянуты её старые знакомые — Елена, Алексей (известный как Красный Страж) и Мелина.
Возраст: 16+ (зрителям, достигшим 16 лет)
Рейтинг MPAA: PG-13 (детям до 13 лет просмотр нежелателен)
Дата мировой премьеры: 3 июля 2021
Дата российской премьеры: 8 июля 2021, «Дисней Студиос»
Продолжительность: 02:13:39
Качество видео: WEB-DLRip
Перевод: Дублированный (Line)
Язык озвучки: Русский
Субтитры: Английские (hardsub)
Реклама: Присутствует баннер
Видео: XviD, 720x304, 1787 kbps
Аудио: АС3, 2 ch, 384 kbps

MediaInfo:

Общее
Полное имя : F:\[Anf]_Black Widow_(2021)_WEB-DLRip.avi
Формат : AVI
Формат/Информация : Audio Video Interleave
Профиль формата : OpenDML
Размер файла : 2,04 Гбайт
Продолжительность : 2 ч. 13 м.
Общий поток : 2 182 Кбит/сек
Видео
Идентификатор : 0
Формат : MPEG-4 Visual
Профиль формата : Advanced Simple@L5
Настройки формата : BVOP2
Параметр BVOP формата : 2
Параметр QPel формата : Нет
Параметр GMC формата : Без точки перехода
Параметр матрицы формата : Default (H.263)
Идентификатор кодека : XVID
Идентификатор кодека/Подсказка : XviD
Продолжительность : 2 ч. 13 м.
Битрейт : 1 787 Кбит/сек
Ширина : 720 пикселей
Высота : 304 пикселя
Соотношение сторон : 2,35:1
Частота кадров : 23,976 (24000/1001) кадра/сек
Цветовое пространство : YUV
Субдискретизация насыщенности : 4:2:0
Битовая глубина : 4 бит
Тип развёртки : Прогрессивная
Метод сжатия : С потерями
Бит/(Пиксели*Кадры) : 0.340
Размер потока : 1,67 Гбайт (82%)
Библиотека кодирования : XviD 1.2.1 (UTC 2008-12-04)
Аудио
Идентификатор : 1
Формат : AC-3
Формат/Информация : Audio Coding 3
Коммерческое название : Dolby Digital
Идентификатор кодека : 2000
Продолжительность : 2 ч. 13 м.
Вид битрейта : Постоянный
Битрейт : 384 Кбит/сек
Каналы : 2 канала
Channel layout : L R
Частота : 48,0 КГц
Частота кадров : 31,250 кадров/сек (1536 SPF)
Метод сжатия : С потерями
Размер потока : 367 Мбайт (18%)
Выравнивание : Соединение по промежуткам
Продолжительность промежутка : 32 мс. (0,77 видеокадр)
Service kind : Complete Main

Дополнительно:

Места с тишиной - зачищена звуковая реклама!
Скриншоты: Все одноименные релизы в Клубе Время раздачи: с 18:00 до 24:00 (до первых 3-5 скачавших)
[Профиль] [ЛС]
Показать сообщения:    
Ответить на тему

Текущее время: 29-Фев 11:58

Часовой пояс: UTC ± 0



Вы не можете начинать темы
Вы не можете отвечать на сообщения
Вы не можете редактировать свои сообщения
Вы не можете удалять свои сообщения
Вы не можете голосовать в опросах
Вы не можете прикреплять файлы к сообщениям
Вы не можете скачивать файлы

[  Время выполнения: 0,038 сек  |  MySQL: 0,003 сек (8%) · 3 запр.  |  GZIP выкл  |  Память: 422,29 KB / 1,74 MB / 1,34 MB  |  Лимит: 6 8 9  ]