Заложник-изгой / Rogue Hostage (2021) WEB-DLRip [MVO, AD]

Ответить на тему
 
Автор Сообщение

admin ®

Пол: Не указан

Стаж: 6 месяца 22 дня

Сообщений: 11520

Создавать темы 30-Янв-2024 13:55

[Цитировать]

Заложник-изгой / Rogue Hostage (2021) WEB-DLRip - Производство: США / BondIt, Buffalo 8 Productions, SSS Entertainment, Voltron Filmz, Yale Productions
Жанр: боевик, триллер
Режиссер: Джон Кейес
Продюсер: Джордан Бекман, Тайриз Гибсон, Джон Кейес
Актеры: Джон Малкович, Майкл Джей Уайт, Холли Тейлор, Тайриз Гибсон, Луна Лорен Велес, Кристофер Бакус, Джон Д. Хикман, Лесли Стрэттон, Адриан Альварадо, Fedna Jacquet
Описание:
Кайл Сноуден, отец-одиночка и бывший морской пехотинец, привыкает к мирной жизни и борется с постравматическим расстройством, когда вместе с дочерью оказывается среди заложников в местном магазине, принадлежащем Сэму Нельсону — конгрессмену и отчиму Кайла. Чтобы спасти свою семью и других заложников, Кайлу предстоит вступить в схватку с террористами и собственными демонами.
Дата мировой премьеры: 11 июня 2021
Продолжительность: 01:33:33
Качество видео: WEB-DLRip
Перевод: Любительский многоголосый (ALPHAPROJECT)
Язык озвучки: Русский
Субтитры: Отсутствуют
Реклама: Присутствует баннер
Видео: XviD, 720х304, 1667 kbps
Аудио: AC3, 2 ch, 384 kbps - Русский (MVO, ALPHAPROJECT)

MediaInfo:

Общее
Полное имя : F:\[Anf]_Rogue Hostage_(2021)_WEB-DLRip.avi
Формат : AVI
Формат/Информация : Audio Video Interleave
Профиль формата : OpenDML
Размер файла : 1,35 Гбайт
Продолжительность : 1 ч. 33 м.
Общий поток : 2 063 Кбит/сек
Видео
Идентификатор : 0
Формат : MPEG-4 Visual
Профиль формата : Advanced Simple@L5
Настройки формата : BVOP2
Параметр BVOP формата : 2
Параметр QPel формата : Нет
Параметр GMC формата : Без точки перехода
Параметр матрицы формата : Default (H.263)
Идентификатор кодека : XVID
Идентификатор кодека/Подсказка : XviD
Продолжительность : 1 ч. 33 м.
Битрейт : 1 667 Кбит/сек
Ширина : 720 пикселей
Высота : 304 пикселя
Соотношение сторон : 2,35:1
Частота кадров : 23,976 (24000/1001) кадра/сек
Цветовое пространство : YUV
Субдискретизация насыщенности : 4:2:0
Битовая глубина : 4 бит
Тип развёртки : Прогрессивная
Метод сжатия : С потерями
Бит/(Пиксели*Кадры) : 0.318
Размер потока : 1,09 Гбайт (81%)
Библиотека кодирования : XviD 1.2.1 (UTC 2008-12-04)
Аудио
Идентификатор : 1
Формат : AC-3
Формат/Информация : Audio Coding 3
Коммерческое название : Dolby Digital
Идентификатор кодека : 2000
Продолжительность : 1 ч. 33 м.
Вид битрейта : Постоянный
Битрейт : 384 Кбит/сек
Каналы : 2 канала
Channel layout : L R
Частота : 48,0 КГц
Частота кадров : 31,250 кадров/сек (1536 SPF)
Метод сжатия : С потерями
Размер потока : 257 Мбайт (19%)
Выравнивание : Соединение по промежуткам
Продолжительность промежутка : 32 мс. (0,77 видеокадр)
Service kind : Complete Main

Реклама:

Внимание, места с тишиной - зачищена реклама!
Скриншоты: Все одноименные релизы в Клубе Время раздачи: с 18:00 до 24:00 (до первых 3-5 скачавших)Нажмёте мне будет очень приятно
[Профиль] [ЛС]
Показать сообщения:    
Ответить на тему

Текущее время: 20-Апр 18:51

Часовой пояс: UTC ± 0



Вы не можете начинать темы
Вы не можете отвечать на сообщения
Вы не можете редактировать свои сообщения
Вы не можете удалять свои сообщения
Вы не можете голосовать в опросах
Вы не можете прикреплять файлы к сообщениям
Вы не можете скачивать файлы

[  Время выполнения: 0,041 сек  |  MySQL: 0,003 сек (7%) · 3 запр.  |  GZIP выкл  |  Память: 422,29 KB / 1,74 MB / 1,34 MB  |  Лимит: 16 14 13  ]