Ночная прогулка / Night Walk (2019) WEBRip [H.264] [Line, AD]

Ответить на тему
 
Автор Сообщение

admin ®

Пол: Не указан

Стаж: 6 месяца 22 дня

Сообщений: 11520

Создавать темы 30-Янв-2024 13:55

[Цитировать]

Ночная прогулка / Night Walk (2019) WEBRip [H.264] - Производство: США / Alexander Media, Lena River productions, Ole Entertainment
Жанр: боевик, криминал
Режиссер: Азиз Тази
Продюсер: Татьяна Булгакова, Mostapha Mellouk, Азиз Тази
Актеры: Шон Стоун, Сара Алами, Микки Рурк, Эрик Робертс, Лауни Муид, Рикко Росс, Ричард Тайсон, Луис Мэндилор, Патрик Килпатрик, Том ’Тайни’ Листер мл.
Описание:
Американец-атеист Фрэнк влюбился в арабскую девушку Сару и решил сделать ей предложение в ее родном городе. Однако коррумпированные исламские полицейские схватили влюблённых и потребовали взятку за то, чтобы выпустить их на свободу, убили Сару, а всю вину свалили на Фрэнка. В тюрьме Фрэнк проходит путь духовного перерождения под влиянием своего сокамерника-мусульманина. Когда его друга убивают как возможного свидетеля преступления судьи, Фрэнку приходится бежать, чтобы не стать следующей жертвой.
Возраст: 18+ (зрителям, достигшим 18 лет. запрещено для детей)
Рейтинг MPAA: R (лицам до 17 лет обязательно присутствие взрослого)
Дата мировой премьеры: 5 августа 2019
Дата российской премьеры: 10 июня 2021, «Парадиз»
Продолжительность: 01:39:42
Качество видео: WEBRip
Перевод: Дублированный (Line)
Субтитры: Отсутствуют
Реклама: Присутствует баннер, звуковая реклама
Видео: AVC/H.264, 1024x432, ~3607 Kbps
Аудио: AC3, 2 ch, 192 Kbps - Русский (DUB)

MediaInfo:

Общее
Уникальный идентификатор : 191810859063118333217882371496028371919 (0x904D6D7E9688AED2B042C8FCE4977BCF)
Полное имя : Night.Walk.2021.WEBRip-AVC.Line.mkv
Формат : Matroska
Версия формата : Version 4
Размер файла : 2,65 Гбайт
Продолжительность : 1 ч. 39 м.
Режим общего битрейта : Переменный
Общий поток : 3801 Кбит/сек
Дата кодирования : UTC 2021-06-12 18:39:26
Программа кодирования : mkvmerge v8.3.0 ('Over the Horizon') 64bit
Библиотека кодирования : libebml v1.3.1 + libmatroska v1.4.2
Видео
Идентификатор : 1
Формат : AVC
Формат/Информация : Advanced Video Codec
Профиль формата : High@L4.1
Настройки формата : CABAC / 4 Ref Frames
Параметр CABAC формата : Да
Параметр RefFrames формата : 4 кадра
Идентификатор кодека : V_MPEG4/ISO/AVC
Продолжительность : 1 ч. 39 м.
Вид битрейта : Переменный
Битрейт : 3607 Кбит/сек
Максимальный битрейт : 4000 Кбит/сек
Ширина : 1024 пикселя
Высота : 432 пикселя
Соотношение сторон : 2,40:1
Режим частоты кадров : Постоянный
Частота кадров : 23,976 (24000/1001) кадра/сек
Стандарт вещания : Component
Цветовое пространство : YUV
Субдискретизация насыщенности : 4:2:0
Битовая глубина : 8 бит
Тип развёртки : Прогрессивная
Бит/(Пиксели*Кадры) : 0.340
Размер потока : 2,51 Гбайт (95%)
Default : Да
Forced : Нет
Цветовой диапазон : Limited
Основные цвета : BT.709
Характеристики трансфера : BT.709
Коэффициенты матрицы : BT.709
Аудио
Идентификатор : 2
Формат : AC-3
Формат/Информация : Audio Coding 3
Коммерческое название : Dolby Digital
Идентификатор кодека : A_AC3
Продолжительность : 1 ч. 39 м.
Вид битрейта : Постоянный
Битрейт : 192 Кбит/сек
Каналы : 2 канала
Channel layout : L R
Частота : 48,0 КГц
Частота кадров : 31,250 кадров/сек (1536 SPF)
Битовая глубина : 16 бит
Метод сжатия : С потерями
Размер потока : 137 Мбайт (5%)
Заголовок : DUB (Line)
Язык : Russian
ServiceKind/String : Complete Main
Default : Да
Forced : Нет
Скриншоты:
Все одноименные релизы в КлубеВремя раздачи: 24/7 (мультитрекерная раздача)
[Профиль] [ЛС]
Показать сообщения:    
Ответить на тему

Текущее время: 20-Апр 19:21

Часовой пояс: UTC ± 0



Вы не можете начинать темы
Вы не можете отвечать на сообщения
Вы не можете редактировать свои сообщения
Вы не можете удалять свои сообщения
Вы не можете голосовать в опросах
Вы не можете прикреплять файлы к сообщениям
Вы не можете скачивать файлы

[  Время выполнения: 0,040 сек  |  MySQL: 0,003 сек (8%) · 3 запр.  |  GZIP выкл  |  Память: 422,29 KB / 1,74 MB / 1,34 MB  |  Лимит: 5 8 11  ]