Ночная прогулка / Night Walk (2019) WEBRip [Line, AD]

Ответить на тему
 
Автор Сообщение

admin ®

Пол: Не указан

Стаж: 6 месяца 22 дня

Сообщений: 11520

Создавать темы 30-Янв-2024 13:55

[Цитировать]

Ночная прогулка / Night Walk (2019) WEBRip - Производство: США / Alexander Media, Lena River productions, Ole Entertainment
Жанр: боевик, криминал
Режиссер: Азиз Тази
Продюсер: Татьяна Булгакова, Mostapha Mellouk, Азиз Тази
Актеры: Шон Стоун, Сара Алами, Микки Рурк, Эрик Робертс, Лауни Муид, Рикко Росс, Ричард Тайсон, Луис Мэндилор, Патрик Килпатрик, Том ’Тайни’ Листер мл.
Описание:
Американец-атеист Фрэнк влюбился в арабскую девушку Сару и решил сделать ей предложение в ее родном городе. Однако коррумпированные исламские полицейские схватили влюблённых и потребовали взятку за то, чтобы выпустить их на свободу, убили Сару, а всю вину свалили на Фрэнка. В тюрьме Фрэнк проходит путь духовного перерождения под влиянием своего сокамерника-мусульманина. Когда его друга убивают как возможного свидетеля преступления судьи, Фрэнку приходится бежать, чтобы не стать следующей жертвой.
Возраст: 18+ (зрителям, достигшим 18 лет. запрещено для детей)
Рейтинг MPAA: R (лицам до 17 лет обязательно присутствие взрослого)
Дата мировой премьеры: 5 августа 2019
Дата российской премьеры: 10 июня 2021, «Парадиз»
Продолжительность: 01:39:42
Качество видео: WEBRip
Перевод: Дублированный (Line)
Субтитры: Отсутствуют
Реклама: Присутствует баннер, звуковая реклама
Видео: Xvid, 720x304, 839 Kbps
Аудио: MP3, 2 ch, 128 Kbps - Русский (DUB)

MediaInfo:

Общее
Полное имя : Night.Walk.2021.WEBRip.Line.avi
Формат : AVI
Формат/Информация : Audio Video Interleave
Размер файла : 699 Мбайт
Продолжительность : 1 ч. 39 м.
Общий поток : 980 Кбит/сек
Видео
Идентификатор : 0
Формат : MPEG-4 Visual
Профиль формата : Advanced Simple@L5
Настройки формата : BVOP2
Параметр BVOP формата : 2
Параметр QPel формата : Нет
Параметр GMC формата : Без точки перехода
Параметр матрицы формата : Default (H.263)
Идентификатор кодека : XVID
Идентификатор кодека/Подсказка : XviD
Продолжительность : 1 ч. 39 м.
Битрейт : 839 Кбит/сек
Ширина : 720 пикселей
Высота : 304 пикселя
Соотношение сторон : 2,35:1
Частота кадров : 23,976 (24000/1001) кадра/сек
Цветовое пространство : YUV
Субдискретизация насыщенности : 4:2:0
Битовая глубина : 4 бит
Тип развёртки : Прогрессивная
Метод сжатия : С потерями
Бит/(Пиксели*Кадры) : 0.160
Размер потока : 598 Мбайт (86%)
Библиотека кодирования : XviD 1.2.1 (UTC 2008-12-04)
Аудио
Идентификатор : 1
Формат : MPEG Audio
Версия формата : Version 1
Профиль формата : Layer 3
Идентификатор кодека : 55
Идентификатор кодека/Подсказка : MP3
Продолжительность : 1 ч. 39 м.
Вид битрейта : Постоянный
Битрейт : 128 Кбит/сек
Каналы : 2 канала
Частота : 48,0 КГц
Метод сжатия : С потерями
Размер потока : 91,3 Мбайт (13%)
Выравнивание : Соединение по промежуткам
Продолжительность промежутка : 24 мс. (0,58 видеокадр)
Скриншоты:
Все одноименные релизы в КлубеВремя раздачи: 24/7 (мультитрекерная раздача)
[Профиль] [ЛС]
Показать сообщения:    
Ответить на тему

Текущее время: 20-Апр 19:37

Часовой пояс: UTC ± 0



Вы не можете начинать темы
Вы не можете отвечать на сообщения
Вы не можете редактировать свои сообщения
Вы не можете удалять свои сообщения
Вы не можете голосовать в опросах
Вы не можете прикреплять файлы к сообщениям
Вы не можете скачивать файлы

[  Время выполнения: 0,037 сек  |  MySQL: 0,003 сек (8%) · 3 запр.  |  GZIP выкл  |  Память: 422,29 KB / 1,74 MB / 1,34 MB  |  Лимит: 5 6 7  ]