В отношениях с убийцей / Dating a Killer (2021) WEBRip [H.264/720p-LQ] [MVO] [AD]

Ответить на тему
 
Автор Сообщение

admin ®

Пол: Не указан

Стаж: 4 месяца 23 дня

Сообщений: 10110

Создавать темы 30-Янв-2024 13:54

[Цитировать]

В отношениях с убийцей / Dating a Killer (2021) WEBRip [H.264/720p-LQ]- Производство: США / Sunshine Films Florida
Жанр: триллер
Режиссер: Демиан Бишир
Актеры: Зои Крамонд, Рик Перес, Эмили Мичели, Джин Александр, Далтон Бенкерт, Люк Докери, Келлер Форнес, Сейдж Келли, Джулия Рейли, Майкл Витович, Джон Уильям Райт
Описание:
Притворяясь 18-летней, 16-летняя Амара пользуется приложением для знакомств, чтобы найти себе парня, несмотря на запрет матери. Вскоре за Дианой и Аманой начинают следить, и Диане приходится собрать все силы, чтобы спасти дочь.
Дата мировой премьеры: 31 мая 2021
Продолжительность: 01:31:28
Качество видео: WEBRip
Перевод: Многоголосый любительский (AlphaProject)
Субтитры: Отсутствуют
Реклама: Присутствует баннер.
Видео: AVC/H.264, 1280x720, ~5577 Kbps
Аудио: AC-3, 2 ch, 384 Kbps

MediaInfo:

Общее
Уникальный идентификатор : 201796632761301616889815013669452719745 (0x97D09E264007D80F9F2A96072F152681)
Полное имя : D:\NNM\В отношениях с убийцей\Dating.a.Killer.2021.WEBRip.720p-LQ.mkv
Формат : Matroska
Версия формата : Version 4
Размер файла : 3,89 Гбайт
Продолжительность : 1 ч. 31 м.
Режим общего битрейта : Переменный
Общий поток : 6 082 Кбит/сек
Дата кодирования : UTC 2021-06-14 14:11:59
Программа кодирования : mkvmerge v6.9.1 ('Blue Panther') 32bit built on Apr 18 2014 18:15:44
Библиотека кодирования : libebml v1.3.0 + libmatroska v1.4.1
Видео
Идентификатор : 1
Формат : AVC
Формат/Информация : Advanced Video Codec
Профиль формата : High@L4.1
Настройки формата : CABAC / 4 Ref Frames
Параметр CABAC формата : Да
Параметр RefFrames формата : 4 кадра
Идентификатор кодека : V_MPEG4/ISO/AVC
Продолжительность : 1 ч. 31 м.
Вид битрейта : Переменный
Битрейт : 5 577 Кбит/сек
Номинальный битрейт : 6 000 Кбит/сек
Максимальный битрейт : 6 000 Кбит/сек
Ширина : 1 280 пикселей
Высота : 720 пикселей
Соотношение сторон : 16:9
Режим частоты кадров : Постоянный
Частота кадров : 23,976 (24000/1001) кадра/сек
Стандарт вещания : Component
Цветовое пространство : YUV
Субдискретизация насыщенности : 4:2:0
Битовая глубина : 8 бит
Тип развёртки : Прогрессивная
Бит/(Пиксели*Кадры) : 0.252
Размер потока : 3,56 Гбайт (92%)
Default : Нет
Forced : Нет
Цветовой диапазон : Limited
Основные цвета : BT.709
Характеристики трансфера : BT.709
Коэффициенты матрицы : BT.709
Аудио
Идентификатор : 2
Формат : AC-3
Формат/Информация : Audio Coding 3
Коммерческое название : Dolby Digital
Идентификатор кодека : A_AC3
Продолжительность : 1 ч. 31 м.
Вид битрейта : Постоянный
Битрейт : 384 Кбит/сек
Каналы : 2 канала
Channel layout : L R
Частота : 48,0 КГц
Частота кадров : 31,250 кадров/сек (1536 SPF)
Метод сжатия : С потерями
Размер потока : 251 Мбайт (6%)
Язык : Russian
Service kind : Complete Main
Default : Да
Forced : Нет

Дополнительно:

Вырезана аудио и видео реклама, осталось только лого.
Скриншоты: Все одноименные релизы в КлубеВремя раздачи: 24/7 (до первых 3-5 скачавших)
[Профиль] [ЛС]
Показать сообщения:    
Ответить на тему

Текущее время: 22-Фев 00:10

Часовой пояс: UTC ± 0



Вы не можете начинать темы
Вы не можете отвечать на сообщения
Вы не можете редактировать свои сообщения
Вы не можете удалять свои сообщения
Вы не можете голосовать в опросах
Вы не можете прикреплять файлы к сообщениям
Вы не можете скачивать файлы

[  Время выполнения: 0,037 сек  |  MySQL: 0,005 сек (13%) · 5 запр.  |  GZIP выкл  |  Память: 421,85 KB / 1,73 MB / 1,34 MB  |  Лимит: 14 11 10  ]