Хозяин (Остров Грэнд-Айл) / Grand Isle (2019) HDRip [Line, AD]

Ответить на тему
 
Автор Сообщение

admin ®

Пол: Не указан

Стаж: 5 месяца 1 день

Сообщений: 10110

Создавать темы 30-Янв-2024 13:54

[Цитировать]

Хозяин (Остров Грэнд-Айл) / Grand Isle (2019) HDRip- Производство: США / BondIt Media Capital, Film Keyz Production, Jeff Rice Films
Жанр: триллер
Режиссер: Стивен С. Кампанелли
Актеры: Николас Кейдж, КаДи Стрикленд, Люк Бенвард, Келси Грэммер, Сулай Энао, Оливер Тревена, Эмили Мари Палмер, Беатрис Эрнандес, Роб Марс, Дэнни Ле Бойер
Описание:
Бадди — красавец и по совместительству мастер на все руки — отправляется чинить ограду в доме бывшего морского пехотинца Уолтера. Из-за внезапно налетевшего урагана Бадди вынужден остаться на ночь в доме Уолтера и его прекрасной, но опасной жены. Между хозяином и гостем начинается опасная игра, ставка в которой — жизнь.
Возраст: 18+ (зрителям, достигшим 18 лет. запрещено для детей)
Дата мировой премьеры: 15 ноября 2019
Премьера в Росcии: 10 июня 2021, «Кинологистика»
Продолжительность: 01:36:30
Качество видео: HDRip
Перевод: Дублированный (Line)
Субтитры: Отсутствуют
Видео: XviD, 720x320, ~1575 Kbps
Аудио: AC3, 2 ch, 384 Kbps

MediaInfo:

Общее
Полное имя : D:\NNM\Хозяин\Grand.Isle.2021.HDRip.avi
Формат : AVI
Формат/Информация : Audio Video Interleave
Профиль формата : OpenDML
Размер файла : 1,33 Гбайт
Продолжительность : 1 ч. 36 м.
Общий поток : 1 972 Кбит/сек
Видео
Идентификатор : 0
Формат : MPEG-4 Visual
Профиль формата : Advanced Simple@L5
Настройки формата : BVOP2 / Custom Matrix
Параметр BVOP формата : 2
Параметр QPel формата : Нет
Параметр GMC формата : Без точки перехода
Параметр матрицы формата : Выборочная
Идентификатор кодека : XVID
Идентификатор кодека/Подсказка : XviD
Продолжительность : 1 ч. 36 м.
Битрейт : 1 575 Кбит/сек
Ширина : 720 пикселей
Высота : 320 пикселей
Соотношение сторон : 2,25:1
Частота кадров : 23,976 (24000/1001) кадра/сек
Цветовое пространство : YUV
Субдискретизация насыщенности : 4:2:0
Битовая глубина : 8 бит
Тип развёртки : Прогрессивная
Метод сжатия : С потерями
Бит/(Пиксели*Кадры) : 0.285
Размер потока : 1,06 Гбайт (80%)
Библиотека кодирования : XviD 1.2.1 (UTC 2008-12-04)
Аудио
Идентификатор : 1
Формат : AC-3
Формат/Информация : Audio Coding 3
Коммерческое название : Dolby Digital
Идентификатор кодека : 2000
Продолжительность : 1 ч. 36 м.
Вид битрейта : Постоянный
Битрейт : 384 Кбит/сек
Каналы : 2 канала
Channel layout : L R
Частота : 48,0 КГц
Частота кадров : 31,250 кадров/сек (1536 SPF)
Метод сжатия : С потерями
Размер потока : 265 Мбайт (19%)
Выравнивание : Соединение по промежуткам
Продолжительность промежутка : 32 мс. (0,77 видеокадр)
Время предзагрузки промежутка : 416 мс.
Service kind : Complete Main

Дополнительно:

Вырезана аудио и видео реклама, осталось только лого.
Скриншоты: Все одноименные релизы в КлубеВремя раздачи: 24/7 (до первых 3-5 скачавших)
[Профиль] [ЛС]
Показать сообщения:    
Ответить на тему

Текущее время: 29-Фев 11:17

Часовой пояс: UTC ± 0



Вы не можете начинать темы
Вы не можете отвечать на сообщения
Вы не можете редактировать свои сообщения
Вы не можете удалять свои сообщения
Вы не можете голосовать в опросах
Вы не можете прикреплять файлы к сообщениям
Вы не можете скачивать файлы

[  Время выполнения: 0,047 сек  |  MySQL: 0,003 сек (5%) · 3 запр.  |  GZIP выкл  |  Память: 422,29 KB / 1,74 MB / 1,34 MB  |  Лимит: 12 11 11  ]