Амнезия / Awake (Wake Up) (2019) WEB-DLRip [Line, AD]

Ответить на тему
 
Автор Сообщение

admin ®

Пол: Не указан

Стаж: 7 месяца 24 дня

Сообщений: 11520

Создавать темы 30-Янв-2024 13:53

[Цитировать]

Амнезия / Awake (Wake Up) (2019) WEB-DLRip - Производство: США / Archer Film Productions, BondIt Media Capital, VMI Worldwide
Жанр: триллер, криминал, боевик
Режиссер: Александр Черняев
Продюсер: Дж.Д. Бофил, Катерина Валенти
Актеры: Джонатан Рис-Майерс, Франческа Иствуд, Уильям Форсайт, Мэлик Йоба, Джеймс Остин Керр, Джинджер Гилмартин, Шайенн Мартин, Кай Браунли-Франс, Дэвид Си Там, Эрин Херринг
Описание:
Джон Доу просыпается в больнице после травмы, не помня, кто он. Вскоре он узнает, что полиция разыскивает хитроумного маньяка за совершение серии убийств. Все улики указывают на Джона. Пытаясь понять, что происходит, и кто он на самом деле, Джон начинает свою собственную игру.
Возраст: 16+ (зрителям, достигшим 16 лет)
Дата мировой премьеры: 1 августа 2019
Дата премьеры в России: 27 мая 2021, «World Pictures»

Продолжительность: 01:28:27
Качество видео: WEB-DLRip
Перевод: Дублированный (Line)
Субтитры: Отсутствуют
Реклама: Присутствует баннер.
Видео: XviD, 720x304, 1794 kbps
Аудио: AC3, 2 ch, 384 kbps - Русский

MediaInfo:

Общее
Полное имя : F:\[Anf]_Awake (Wake Up)_(2019)_WEB-DLRip.avi
Формат : AVI
Формат/Информация : Audio Video Interleave
Профиль формата : OpenDML
Размер файла : 1,35 Гбайт
Продолжительность : 1 ч. 28 м.
Общий поток : 2 191 Кбит/сек
Видео
Идентификатор : 0
Формат : MPEG-4 Visual
Профиль формата : Advanced Simple@L5
Настройки формата : BVOP2 / Custom Matrix
Параметр BVOP формата : 2
Параметр QPel формата : Нет
Параметр GMC формата : Без точки перехода
Параметр матрицы формата : Выборочная
Идентификатор кодека : XVID
Идентификатор кодека/Подсказка : XviD
Продолжительность : 1 ч. 28 м.
Битрейт : 1 794 Кбит/сек
Ширина : 720 пикселей
Высота : 384 пикселя
Соотношение сторон : 1,85:1
Частота кадров : 23,976 (24000/1001) кадра/сек
Цветовое пространство : YUV
Субдискретизация насыщенности : 4:2:0
Битовая глубина : 8 бит
Тип развёртки : Прогрессивная
Метод сжатия : С потерями
Бит/(Пиксели*Кадры) : 0.271
Размер потока : 1,11 Гбайт (82%)
Библиотека кодирования : XviD 1.2.1 (UTC 2008-12-04)
Аудио
Идентификатор : 1
Формат : AC-3
Формат/Информация : Audio Coding 3
Коммерческое название : Dolby Digital
Идентификатор кодека : 2000
Продолжительность : 1 ч. 28 м.
Вид битрейта : Постоянный
Битрейт : 384 Кбит/сек
Каналы : 2 канала
Channel layout : L R
Частота : 48,0 КГц
Частота кадров : 31,250 кадров/сек (1536 SPF)
Метод сжатия : С потерями
Размер потока : 243 Мбайт (18%)
Выравнивание : Соединение по промежуткам
Продолжительность промежутка : 32 мс. (0,77 видеокадр)
Service kind : Complete Main

Реклама:

Внимание, места с тишиной - зачищена реклама!
Скриншоты: Все одноименные релизы в Клубе Время раздачи: с 18:00 до 24:00 (до первых 3-5 скачавших)Нажмёте мне будет очень приятно
[Профиль] [ЛС]
Показать сообщения:    
Ответить на тему

Текущее время: 23-Май 05:24

Часовой пояс: UTC ± 0



Вы не можете начинать темы
Вы не можете отвечать на сообщения
Вы не можете редактировать свои сообщения
Вы не можете удалять свои сообщения
Вы не можете голосовать в опросах
Вы не можете прикреплять файлы к сообщениям
Вы не можете скачивать файлы

[  Время выполнения: 0,030 сек  |  MySQL: 0,002 сек (8%) · 3 запр.  |  GZIP выкл  |  Память: 422,29 KB / 1,72 MB / 1,32 MB  |  Лимит: 15 17 18  ]