Оккупация: Миссия «Дождь» / Occupation: Rainfall (2020) WEB-DLRip [MVO] [AD]

Ответить на тему
 
Автор Сообщение

admin ®

Пол: Не указан

Стаж: 6 месяца 19 дня

Сообщений: 11520

Создавать темы 30-Янв-2024 13:52

[Цитировать]

Оккупация: Миссия «Дождь» / Occupation: Rainfall (2020) WEB-DLRip- Производство: Австралия / Occupation Two Productions
Жанр: фантастика, боевик
Режиссер: Люк Спарк
Актеры: Дэниэл Юинг, Темуэра Моррисон, Дэниэл Гиллис, Лоуренс Макор, Захари Гарред, Джет Трантер, Марк Коулз Смит, Тристан Гоу, Кен Жонг, Джейсон Айзекс
Описание:
Прошло два года после высадки инопланетян на Землю. Пришельцам удалось захватить всю Австралию, но Сидней все еще не повержен — выжившие продолжают отчаянно сражаться, но их силы на исходе. Тем временем небольшая группа людей узнает о заговоре, который может положить конец войне.
Возраст: 16+ (зрителям, достигшим 16 лет)
Дата мировой премьеры: 30 октября 2020
Дата премьеры в России: 17 июня 2021, «Парадиз»

Продолжительность: 02:07:55
Качество видео: WEB-DLRip
Перевод: Многоголосый любительский (AlphaProject)
Субтитры: Отсутствуют
Реклама: Присутствует баннер.
Видео: XviD, 720x304, ~1871 Kbps
Аудио: AC-3, 2 ch, 384 Kbps

MediaInfo:

Общее
Полное имя : D:\NNM\Оккупация\Occupation.Rainfall.2021.WEB-DLRip.avi
Формат : AVI
Формат/Информация : Audio Video Interleave
Профиль формата : OpenDML
Размер файла : 2,02 Гбайт
Продолжительность : 2 ч. 7 м.
Общий поток : 2 266 Кбит/сек
Видео
Идентификатор : 0
Формат : MPEG-4 Visual
Профиль формата : Advanced Simple@L5
Настройки формата : BVOP2 / Custom Matrix
Параметр BVOP формата : 2
Параметр QPel формата : Нет
Параметр GMC формата : Без точки перехода
Параметр матрицы формата : Выборочная
Идентификатор кодека : XVID
Идентификатор кодека/Подсказка : XviD
Продолжительность : 2 ч. 7 м.
Битрейт : 1 871 Кбит/сек
Ширина : 720 пикселей
Высота : 304 пикселя
Соотношение сторон : 2,35:1
Частота кадров : 23,976 (24000/1001) кадра/сек
Цветовое пространство : YUV
Субдискретизация насыщенности : 4:2:0
Битовая глубина : 8 бит
Тип развёртки : Прогрессивная
Метод сжатия : С потерями
Бит/(Пиксели*Кадры) : 0.357
Размер потока : 1,67 Гбайт (83%)
Библиотека кодирования : XviD 1.2.1 (UTC 2008-12-04)
Аудио
Идентификатор : 1
Формат : AC-3
Формат/Информация : Audio Coding 3
Коммерческое название : Dolby Digital
Идентификатор кодека : 2000
Продолжительность : 2 ч. 7 м.
Вид битрейта : Постоянный
Битрейт : 384 Кбит/сек
Каналы : 2 канала
Channel layout : L R
Частота : 48,0 КГц
Частота кадров : 31,250 кадров/сек (1536 SPF)
Метод сжатия : С потерями
Размер потока : 351 Мбайт (17%)
Выравнивание : Соединение по промежуткам
Продолжительность промежутка : 32 мс. (0,77 видеокадр)
Service kind : Complete Main
Скриншоты: Все одноименные релизы в КлубеВремя раздачи: 24/7 (до первых 3-5 скачавших)
[Профиль] [ЛС]
Показать сообщения:    
Ответить на тему

Текущее время: 17-Апр 16:15

Часовой пояс: UTC ± 0



Вы не можете начинать темы
Вы не можете отвечать на сообщения
Вы не можете редактировать свои сообщения
Вы не можете удалять свои сообщения
Вы не можете голосовать в опросах
Вы не можете прикреплять файлы к сообщениям
Вы не можете скачивать файлы

[  Время выполнения: 0,037 сек  |  MySQL: 0,003 сек (9%) · 3 запр.  |  GZIP выкл  |  Память: 422,29 KB / 1,74 MB / 1,34 MB  |  Лимит: 11 12 14  ]