Поколение Вояджер / Voyagers (2021) WEB-DLRip [Line, AD]

Ответить на тему
 
Автор Сообщение

admin ®

Пол: Не указан

Стаж: 6 месяца 19 дня

Сообщений: 11520

Создавать темы 30-Янв-2024 13:50

[Цитировать]

Поколение Вояджер / Voyagers (2021) WEB-DLRip [AD]- Производство: США, Чехия, Румыния, Великобритания
Жанр: фантастика, триллер, приключения
Режиссер: Нил Бёргер
Продюсер: Бэзил Иваник, Нил Бёргер, Брендон Бойа
Актеры: Тай Шеридан, Лили-Роуз Депп, Финн Уайтхед, Шанте Адамс, Куинтесса Суинделл, Арчи Мадекве, Айзек Хемпстед-Райт, Вивеик Калра, Мэдисон Ху, Арчи Рено
Описание:
Они были рождены для этой миссии. Высокоинтеллектуальные и бесстрастные. Они должны спасти человечество, продолжив жизнь на далекой планете. Но вскоре команда открывает секрет экспедиции: средство защиты — это средство контроля. Когда контроль ослабевает, на свободу вырываются чувства и желания, а вместе с ними их темная сторона — страх и жажда власти. И уже неизвестно, какой враг страшнее — тот, что в глубине космоса, или тот, что внутри.
Возраст: 16+ (зрителям, достигшим 16 лет)
Рейтинг MPAA: PG-13 (детям до 13 лет просмотр нежелателен)
Дата мировой премьеры: 8 апреля 2021
Дата российской премьеры: 22 апреля 2021, «Наше Кино»
Продолжительность: 01:41:19
Качество видео: WEB-DLRip
Перевод: Дублированный (Line)
Язык озвучки: Русский
Субтитры: Отсутствуют
Реклама: Присутствует баннер, звуковая реклама
Видео: XviD, 720х304 ~1517 kbps
Аудио: AC3, 2ch, 256 kbps l Русский

MediaInfo:

Общее
Полное имя : F:\[Anf]_Voyagers_(2021)_WEB-DLRip.avi
Формат : AVI
Формат/Информация : Audio Video Interleave
Размер файла : 1,26 Гбайт
Продолжительность : 1 ч. 41 м.
Общий поток : 1 784 Кбит/сек
Видео
Идентификатор : 0
Формат : MPEG-4 Visual
Профиль формата : Advanced Simple@L5
Настройки формата : BVOP2 / Custom Matrix
Параметр BVOP формата : 2
Параметр QPel формата : Нет
Параметр GMC формата : Без точки перехода
Параметр матрицы формата : Выборочная
Идентификатор кодека : XVID
Идентификатор кодека/Подсказка : XviD
Продолжительность : 1 ч. 41 м.
Битрейт : 1 517 Кбит/сек
Ширина : 720 пикселей
Высота : 304 пикселя
Соотношение сторон : 2,35:1
Частота кадров : 23,976 (23976/1000) кадра/сек
Цветовое пространство : YUV
Субдискретизация насыщенности : 4:2:0
Битовая глубина : 8 бит
Тип развёртки : Прогрессивная
Метод сжатия : С потерями
Бит/(Пиксели*Кадры) : 0.289
Размер потока : 1,07 Гбайт (85%)
Библиотека кодирования : XviD 1.2.1 (UTC 2008-12-04)
Аудио
Идентификатор : 1
Формат : AC-3
Формат/Информация : Audio Coding 3
Коммерческое название : Dolby Digital
Идентификатор кодека : 2000
Продолжительность : 1 ч. 41 м.
Вид битрейта : Постоянный
Битрейт : 256 Кбит/сек
Каналы : 2 канала
Channel layout : L R
Частота : 48,0 КГц
Частота кадров : 31,250 кадров/сек (1536 SPF)
Метод сжатия : С потерями
Задержка видео : 32 мс.
Размер потока : 186 Мбайт (14%)
Выравнивание : Разделение по промежуткам
Продолжительность промежутка : 32 мс. (0,77 видеокадр)
Service kind : Complete Main
Скриншоты: Все одноименные релизы в Клубе Время раздачи: с 12:00 до 24:00 (до первых 3-5 скачавших)Нажмёте -мне будет очень приятно
[Профиль] [ЛС]
Показать сообщения:    
Ответить на тему

Текущее время: 17-Апр 16:00

Часовой пояс: UTC ± 0



Вы не можете начинать темы
Вы не можете отвечать на сообщения
Вы не можете редактировать свои сообщения
Вы не можете удалять свои сообщения
Вы не можете голосовать в опросах
Вы не можете прикреплять файлы к сообщениям
Вы не можете скачивать файлы

[  Время выполнения: 0,047 сек  |  MySQL: 0,004 сек (8%) · 5 запр.  |  GZIP выкл  |  Память: 422,29 KB / 1,73 MB / 1,34 MB  |  Лимит: 21 19 16  ]