Дара из Ясеноваца / Dara iz Jasenovca (2020) WEB-DLRip [MVO] [AD]

Ответить на тему
 
Автор Сообщение

admin ®

Пол: Не указан

Стаж: 7 месяца 26 дня

Сообщений: 11520

Создавать темы 30-Янв-2024 13:50

[Цитировать]

Дара из Ясеноваца / Dara iz Jasenovca (2020) WEB-DLRip [MVO][AD] - Производство: Сербия, Dandelion Production Inc, Film Danas, Komuna
Жанр: драма, военный
Режиссер: Предраг Антониевич
Продюсер: Предраг Антониевич, Макса Катович, Майкл Беренбаум
Актеры: Вук Костич, Наташа Нинкович, Марко Янкетич, Игорь Джорджевич, Natasa Drakulic, Николина Елисавац, Петар Зекавица, Biljana Cekic, Златан Видович, Радослав Миленкович
Описание:
Фильм о судьбе девочки Дары и ее семьи во время Второй мировой войны, вскоре после «усташско-немецкого наступления на Козаре, когда многие дети из этого района были доставлены в Ясеновац, а затем переведены в лагерь Стара Градишка.
Рейтинг MPAA: R (лицам до 17 лет обязательно присутствие взрослого)
Дата мировой премьеры: 25 ноября 2020
Продолжительность: 02:05:29
Качество видео: WEB-DLRip
Перевод: Многоголосый закадровый (MUZOBOZ)
Язык озвучки: Русский
Субтитры: Сербские (хардсаб на немецкую речь)
Реклама: Присутствует баннер, звуковая реклама
Видео: XviD, 720x304, ~1924 kbps
Аудио: AC3, 2ch, 384 kbps l Русский [MVO l MUZOBOZ]

MediaInfo:

Общее
Полное имя : F:\[Anf]_Dara iz Jasenovca_(2020)_WEB-DLRip.avi
Формат : AVI
Формат/Информация : Audio Video Interleave
Профиль формата : OpenDML
Размер файла : 2,03 Гбайт
Продолжительность : 2 ч. 5 м.
Общий поток : 2 321 Кбит/сек
Программа кодирования : VirtualDubMod 1.5.10.3 | www.virtualdub-fr.org || (build 2550/release)
Библиотека кодирования : VirtualDub build 35491/release
Видео
Идентификатор : 0
Формат : MPEG-4 Visual
Профиль формата : Advanced Simple@L5
Настройки формата : BVOP2 / Custom Matrix
Параметр BVOP формата : 2
Параметр QPel формата : Нет
Параметр GMC формата : Без точки перехода
Параметр матрицы формата : Выборочная
Идентификатор кодека : XVID
Идентификатор кодека/Подсказка : XviD
Продолжительность : 2 ч. 5 м.
Битрейт : 1 924 Кбит/сек
Ширина : 720 пикселей
Высота : 304 пикселя
Соотношение сторон : 2,35:1
Частота кадров : 25,000 кадров/сек
Цветовое пространство : YUV
Субдискретизация насыщенности : 4:2:0
Битовая глубина : 8 бит
Тип развёртки : Прогрессивная
Метод сжатия : С потерями
Бит/(Пиксели*Кадры) : 0.352
Размер потока : 1,69 Гбайт (83%)
Библиотека кодирования : XviD 1.2.1 (UTC 2008-12-04)
Аудио
Идентификатор : 1
Формат : AC-3
Формат/Информация : Audio Coding 3
Коммерческое название : Dolby Digital
Идентификатор кодека : 2000
Продолжительность : 2 ч. 5 м.
Вид битрейта : Постоянный
Битрейт : 384 Кбит/сек
Каналы : 2 канала
Channel layout : L R
Частота : 48,0 КГц
Частота кадров : 31,250 кадров/сек (1536 SPF)
Метод сжатия : С потерями
Размер потока : 345 Мбайт (17%)
Выравнивание : Разделение по промежуткам
Продолжительность промежутка : 40 мс. (1,00 видеокадр)
Время предзагрузки промежутка : 500 мс.
Service kind : Complete Main
Скриншоты: Все одноименные релизы в Клубе Время раздачи: с 12:00 до 24:00 (до первых 3-5 скачавших)Нажмёте мне будет очень приятно
[Профиль] [ЛС]
Показать сообщения:    
Ответить на тему

Текущее время: 24-Май 14:35

Часовой пояс: UTC ± 0



Вы не можете начинать темы
Вы не можете отвечать на сообщения
Вы не можете редактировать свои сообщения
Вы не можете удалять свои сообщения
Вы не можете голосовать в опросах
Вы не можете прикреплять файлы к сообщениям
Вы не можете скачивать файлы

[  Время выполнения: 0,032 сек  |  MySQL: 0,004 сек (12%) · 5 запр.  |  GZIP выкл  |  Память: 422,29 KB / 1,72 MB / 1,32 MB  |  Лимит: 13 13 12  ]