Космические чистильщики / Seungriho (Space Sweepers) (2021) WEBRip [H.264/1080p-LQ] [MVO, AD]

Ответить на тему
 
Автор Сообщение

admin ®

Пол: Не указан

Стаж: 5 месяца 1 день

Сообщений: 10110

Создавать темы 30-Янв-2024 13:48

[Цитировать]

Космические чистильщики / Seungriho (Space Sweepers) (2021) WEBRip [H.264/1080p-LQ] OMSKBIRD [AD] - Производство: Южная Корея / Bidangil Pictures, Huayi Tencent Entertainment Company, Merry Christmas Entertainment, Netflix
Жанр: фантастика, комедия, приключения, боевик
Режиссер: Сон Хи Чо
Актеры: Чжун Ки Сон, Тэ Ри Ким, Сон Гю Чжин, Хэ Чжин Ю, Е Рин Пак, Ричард Армитедж, Му Ёль Ким, Хян Ги Ким, Джи Юль О, Нас Браун, Кевин Докри, Дэниэл Джои Олбрайт, Дэ Хан Ким, Джон Ди. Майклс
Описание:
2092 год. Из-за глобального загрязнения Земля становится непригодной для жизни, поэтому компания UTS с помощью нанотехнологий планирует терраформировать Марс. Но в светлое будущее возьмут далеко не всё население, и команда космического корабля «Победа» в число этих счастливчиков не входит. Нищеброд Тхэ-хо, красавица-капитан Чан, матёрый космонавт Тайгер Пак и робот, как и многие другие, пытаются заработать сбором космического мусора, но всё больше залезают в долги. Однажды они находят с виду безобидную девочку-андроида, которая, как выясняется, является оружием массового поражения. Наши герои решают наладить свою унылую жизнь и выгодно продать находку.
Возраст: 18+ (зрителям, достигшим 18 лет. запрещено для детей)
Дата мировой премьеры: 29 января 2021
Релиз от: OMSKBIRD
Продолжительность: ~02:17:00
Качество видео: WEBRip
Перевод: Многоголосый закадровый (OMSKBIRD) ненормативная лексика
Субтитры: Отсутствуют
Реклама: Релиз содержит рекламные аудио вставки
Видео: AVC/H.264, 1920x1080, ~ 7000 Kbps
Аудио 1: AC3, 6 ch, 640 Kbps - Русский (MVO, OMSKBIRD)
Аудио 2: E-AC3, 6 ch, 768 Kbps - Корейский

MediaInfo:

Complete name : D:\Seungriho 2021\Space.Sweepers.2021.1080p.WEB-DL.OmskBird.mkv
Format : Matroska
Format version : Version 4
File size : 8.10 GiB
Duration : 2 h 17 min
Overall bit rate mode : Variable
Overall bit rate : 8 416 kb/s
Encoded date : UTC 2021-04-01 10:47:53
Writing application : mkvmerge v51.0.0 ('I Wish') 64-bit
Writing library : libebml v1.4.0 + libmatroska v1.6.2
Cover : Yes
Attachments : small_cover.jpg / small_cover_land.jpg / cover.jpg / cover_land.jpg
Video
ID : 1
Format : AVC
Format/Info : Advanced Video Codec
Format profile : High@L4
Format settings : CABAC / 4 Ref Frames
Format settings, CABAC : Yes
Format settings, ReFrames : 4 frames
Codec ID : V_MPEG4/ISO/AVC
Duration : 2 h 17 min
Bit rate mode : Variable
Bit rate : 7 008 kb/s
Maximum bit rate : 20.0 Mb/s
Width : 1 920 pixels
Height : 1 080 pixels
Display aspect ratio : 16:9
Frame rate mode : Constant
Frame rate : 23.976 (24000/1001) FPS
Color space : YUV
Chroma subsampling : 4:2:0
Bit depth : 8 bits
Scan type : Progressive
Bits/(Pixel*Frame) : 0.141
Stream size : 6.74 GiB (83%)
Writing library : x264 core 148 r2722 1b0121b
Encoding settings : cabac=1 / ref=4 / deblock=1:0:0 / analyse=0x3:0x111 / me=umh / subme=10 / psy=1 / psy_rd=1.00:0.00 / mixed_ref=1 / me_range=120 / chroma_me=1 / trellis=2 / 8x8dct=1 / cqm=0 / deadzone=21,11 / fast_pskip=1 / chroma_qp_offset=-2 / threads=8 / lookahead_threads=2 / sliced_threads=0 / nr=0 / decimate=1 / interlaced=0 / bluray_compat=0 / stitchable=1 / constrained_intra=0 / bframes=16 / b_pyramid=2 / b_adapt=2 / b_bias=0 / direct=3 / weightb=1 / open_gop=0 / weightp=2 / keyint=240 / keyint_min=121 / scenecut=0 / intra_refresh=0 / rc_lookahead=240 / rc=crf / mbtree=1 / crf=16.0 / qcomp=0.50 / qpmin=6 / qpmax=51 / qpstep=4 / vbv_maxrate=20000 / vbv_bufsize=25000 / crf_max=0.0 / nal_hrd=vbr / filler=0 / ip_ratio=1.40 / aq=1:0.80
Default : Yes
Forced : No
Audio #1
ID : 2
Format : AC-3
Format/Info : Audio Coding 3
Commercial name : Dolby Digital
Codec ID : A_AC3
Duration : 2 h 17 min
Bit rate mode : Constant
Bit rate : 640 kb/s
Channel(s) : 6 channels
Channel layout : L R C LFE Ls Rs
Sampling rate : 48.0 kHz
Frame rate : 31.250 FPS (1536 SPF)
Bit depth : 16 bits
Compression mode : Lossy
Stream size : 631 MiB (8%)
Language : Russian
Service kind : Complete Main
Default : Yes
Forced : No
Audio #2
ID : 3
Format : E-AC-3 JOC
Format/Info : Enhanced AC-3 with Joint Object Coding
Commercial name : Dolby Digital Plus with Dolby Atmos
Codec ID : A_EAC3
Duration : 2 h 17 min
Bit rate mode : Constant
Bit rate : 768 kb/s
Channel(s) : 6 channels
Channel layout : L R C LFE Ls Rs
Sampling rate : 48.0 kHz
Frame rate : 31.250 FPS (1536 SPF)
Compression mode : Lossy
Stream size : 757 MiB (9%)
Title : Korean
Language : Korean
Service kind : Complete Main
Default : No
Forced : No
Complexity index : 16
Number of dynamic objects : 15
Bed channel count : 1 channel
Bed channel configuration : LFE
Скриншоты:
Все одноименные релизы в КлубеВремя раздачи: с 08:00 до 23:30 (до появления первых 3-5 скачавших)
[Профиль] [ЛС]
Показать сообщения:    
Ответить на тему

Текущее время: 29-Фев 13:08

Часовой пояс: UTC ± 0



Вы не можете начинать темы
Вы не можете отвечать на сообщения
Вы не можете редактировать свои сообщения
Вы не можете удалять свои сообщения
Вы не можете голосовать в опросах
Вы не можете прикреплять файлы к сообщениям
Вы не можете скачивать файлы

[  Время выполнения: 0,037 сек  |  MySQL: 0,003 сек (9%) · 3 запр.  |  GZIP выкл  |  Память: 422,29 KB / 1,74 MB / 1,34 MB  |  Лимит: 15 16 17  ]