Ток / The Power (2021) WEB-DLRip [MVO] [AD]

Ответить на тему
 
Автор Сообщение

admin ®

Пол: Не указан

Стаж: 4 месяца 27 дня

Сообщений: 10110

Создавать темы 30-Янв-2024 13:47

[Цитировать]

Ток / The Power (2021) WEB-DLRip [MVO][AD] - Производство: Великобритания, Air Street Films, British Film Institute (BFI), Head Gear Films
Жанр: ужасы
Режиссер: Коринна Фэйт
Актеры: Роуз Уильямс, Эмма Ригби, Чарли Каррик, Гбемисола Икумело, Пол Энтони-Барбер, Клара Рид, Дайвин Хенри, Роберт Гудман
Описание:
Январь 1974 года. Британию захлестнула забастовка шахтёров, из-за чего повсеместно отключено электричество, и страна буквально погружена во тьму. А у юной медсестры Вэл первый рабочий день в старом готовящемся к сносу госпитале, где она оказывается практически одна в пустом и окутанном зловещей тьмой здании. И в этой тьме скрывается некая сила, с которой девушке придётся столкнуться лицом к лицу в смертельной схватке.
Дата мировой премьеры: 8 апреля 2021
Продолжительность: 01:32:41
Качество видео: WEB-DLRip
Перевод: Многоголосый любительский (Синема УС)
Язык озвучки: Русский
Субтитры: Отсутствуют
Реклама: Присутствует баннер
Видео: XviD, 720х304, ~1441 kbps
Аудио 1: AC3, 2 ch, 384 kbps l Русский

MediaInfo:

Общее
Полное имя : F:\[Anf]_The Power.(2021)_WEB-DLRip.avi
Формат : AVI
Формат/Информация : Audio Video Interleave
Размер файла : 1,19 Гбайт
Продолжительность : 1 ч. 32 м.
Общий поток : 1 836 Кбит/сек
Видео
Идентификатор : 0
Формат : MPEG-4 Visual
Профиль формата : Advanced Simple@L5
Настройки формата : BVOP2 / Custom Matrix
Параметр BVOP формата : 2
Параметр QPel формата : Нет
Параметр GMC формата : Без точки перехода
Параметр матрицы формата : Выборочная
Идентификатор кодека : XVID
Идентификатор кодека/Подсказка : XviD
Продолжительность : 1 ч. 32 м.
Битрейт : 1 441 Кбит/сек
Ширина : 720 пикселей
Высота : 304 пикселя
Соотношение сторон : 2,35:1
Частота кадров : 23,976 (23976/1000) кадра/сек
Цветовое пространство : YUV
Субдискретизация насыщенности : 4:2:0
Битовая глубина : 8 бит
Тип развёртки : Прогрессивная
Метод сжатия : С потерями
Бит/(Пиксели*Кадры) : 0.275
Размер потока : 955 Мбайт (78%)
Библиотека кодирования : XviD 1.2.1 (UTC 2008-12-04)
Аудио
Идентификатор : 1
Формат : AC-3
Формат/Информация : Audio Coding 3
Коммерческое название : Dolby Digital
Идентификатор кодека : 2000
Продолжительность : 1 ч. 32 м.
Вид битрейта : Постоянный
Битрейт : 384 Кбит/сек
Каналы : 2 канала
Channel layout : L R
Частота : 48,0 КГц
Частота кадров : 31,250 кадров/сек (1536 SPF)
Метод сжатия : С потерями
Задержка видео : 32 мс.
Размер потока : 254 Мбайт (21%)
Выравнивание : Разделение по промежуткам
Продолжительность промежутка : 32 мс. (0,77 видеокадр)
Service kind : Complete Main
Скриншоты: Все одноименные релизы в Клубе Время раздачи: с 10:00 до 24:00 (до первых 3-5 скачавших)Нажмёте -мне будет очень приятно
[Профиль] [ЛС]
Показать сообщения:    
Ответить на тему

Текущее время: 25-Фев 18:18

Часовой пояс: UTC ± 0



Вы не можете начинать темы
Вы не можете отвечать на сообщения
Вы не можете редактировать свои сообщения
Вы не можете удалять свои сообщения
Вы не можете голосовать в опросах
Вы не можете прикреплять файлы к сообщениям
Вы не можете скачивать файлы

[  Время выполнения: 0,034 сек  |  MySQL: 0,003 сек (9%) · 3 запр.  |  GZIP выкл  |  Память: 422,29 KB / 1,74 MB / 1,34 MB  |  Лимит: 16 15 12  ]