Ассасин: Битва миров / Ci sha xiao shuo jia / A Writer's Odyssey: Assassin in red (2021) WEB-DLRip [DVO] [AD]

Ответить на тему
 
Автор Сообщение

admin ®

Пол: Не указан

Стаж: 6 месяца 22 дня

Сообщений: 11520

Создавать темы 30-Янв-2024 13:46

[Цитировать]

Ассасин: Битва миров / Ci sha xiao shuo jia / A Writer's Odyssey: Assassin in red (2021) WEB-DLRip [DVO][AD]- Производство: Китай / Free Whale Pictures, Huace Pictures
Жанр: фэнтези, боевик
Режиссер: Лу Ян
Актеры: Лэй Цзяинь, Ян Ми, Дун Цзыцзянь, Юй Хэвэй, Го Цзинфэй, Ван Шэнди, Тун Лия, Дун Цзэ, Ян И, Лю Тяньцзо
Описание:
Сюжет повествует об удивительном фэнтезийном мире, где магия и мифические чудовища поражают и взор, и разум. На своем пути воин столкнется с суровыми испытаниями, станет свидетелем невероятных баталий и будет противостоять загадочным ассасинам в алом. Каждый его шаг должен быть решителен, но осторожен, ведь его действия найдут отклик за пределами реальности и изменят судьбы людей параллельного мира навсегда.
Возраст: 18+ (зрителям, достигшим 18 лет. запрещено для детей)
Дата мировой премьеры: 12 февраля 2021
Дата российской премьеры: 3 июня 2021, «MEGOGO Distribution»
Продолжительность: 02:09:51
Качество видео: WEB-DLRip
Перевод: Любительский (двухголосый закадровый) КОЛОБОК
Субтитры: Английские, Китайские (вшитые)
Реклама: Присутствует баннер, звуковая реклама
Видео: XviD, 720х384, ~1850 Kbps
Аудио: AC3, 2 ch, 192 Kbps l Русский

MediaInfo:

Общее
Полное имя : F:\[Anf]_A Writer's Odyssey Assassin in red.(2021)_WEB-DLRip.avi
Формат : AVI
Формат/Информация : Audio Video Interleave
Профиль формата : OpenDML
Размер файла : 2,04 Гбайт
Продолжительность : 2 ч. 9 м.
Общий поток : 2 246 Кбит/сек
Программа кодирования : VirtualDubMod 1.5.10.3 | www.virtualdub-fr.org || (build 2550/release)
Библиотека кодирования : VirtualDub build 35491/release
Видео
Идентификатор : 0
Формат : MPEG-4 Visual
Профиль формата : Advanced Simple@L5
Настройки формата : BVOP2 / Custom Matrix
Параметр BVOP формата : 2
Параметр QPel формата : Нет
Параметр GMC формата : Без точки перехода
Параметр матрицы формата : Выборочная
Идентификатор кодека : XVID
Идентификатор кодека/Подсказка : XviD
Продолжительность : 2 ч. 9 м.
Битрейт : 1 850 Кбит/сек
Ширина : 720 пикселей
Высота : 384 пикселя
Соотношение сторон : 1,85:1
Частота кадров : 23,976 (24000/1001) кадра/сек
Цветовое пространство : YUV
Субдискретизация насыщенности : 4:2:0
Битовая глубина : 8 бит
Тип развёртки : Прогрессивная
Метод сжатия : С потерями
Бит/(Пиксели*Кадры) : 0.279
Размер потока : 1,68 Гбайт (82%)
Библиотека кодирования : XviD 1.2.1 (UTC 2008-12-04)
Аудио
Идентификатор : 1
Формат : AC-3
Формат/Информация : Audio Coding 3
Коммерческое название : Dolby Digital
Идентификатор кодека : 2000
Продолжительность : 2 ч. 9 м.
Вид битрейта : Постоянный
Битрейт : 384 Кбит/сек
Каналы : 2 канала
Channel layout : L R
Частота : 48,0 КГц
Частота кадров : 31,250 кадров/сек (1536 SPF)
Метод сжатия : С потерями
Размер потока : 357 Мбайт (17%)
Выравнивание : Разделение по промежуткам
Продолжительность промежутка : 42 мс. (1,00 видеокадр)
Время предзагрузки промежутка : 500 мс.
Service kind : Complete Main
Скриншоты: Все одноименные релизы в Клубе Время раздачи: с 12:00 до 24:00 (до первых 3-5 скачавших)Нажмёте -мне будет очень приятно
[Профиль] [ЛС]
Показать сообщения:    
Ответить на тему

Текущее время: 20-Апр 20:04

Часовой пояс: UTC ± 0



Вы не можете начинать темы
Вы не можете отвечать на сообщения
Вы не можете редактировать свои сообщения
Вы не можете удалять свои сообщения
Вы не можете голосовать в опросах
Вы не можете прикреплять файлы к сообщениям
Вы не можете скачивать файлы

[  Время выполнения: 0,038 сек  |  MySQL: 0,003 сек (8%) · 3 запр.  |  GZIP выкл  |  Память: 422,29 KB / 1,74 MB / 1,34 MB  |  Лимит: 5 5 5  ]