Печь / The Furnace (2020) WEB-DLRip [MVO] [AD]

Ответить на тему
 
Автор Сообщение

admin ®

Пол: Не указан

Стаж: 5 месяца 1 день

Сообщений: 10110

Создавать темы 30-Янв-2024 13:46

[Цитировать]

Печь / The Furnace (2020) WEB-DLRip [MVO][AD]- Производство: Австралия
Жанр: триллер, драма, приключения, Вестерн, История
Режиссер: Родерик МакКей
Актеры: Дэвид Уэнэм, Джей Райан, Махеш Джаду, Самсон Култер, Горан Д Клюе, Эрик Томсон, Гари Янг, Ахмад Малек, Байкали Ганамбарр, Осама Сами
Описание:
1897 год. Западная Австралия. Чтобы избежать суровой жизни и вернуться домой, молодой афганский погонщик верблюдов объединился с таинственным бушменом с двумя золотыми слитками в 400 унций, отмеченными изображением короны. Вместе они должны перехитрить рьяного сержанта полиции и его солдат в гонке, чтобы добраться до секретной печи - единственного места, где они могут безопасно удалить знак короны...
Дата мировой премьеры: 4 сентября 2020
Продолжительность: 01:56:39
Качество видео: WEB-DLRip
Перевод: Многоголосый закадровый (Синема УС)
Субтитры: Отсутствуют
Реклама: Присутствует баннер, звуковая реклама
Видео: XviD, 720х304, ~2101 kbps
Аудио: AC3, 2 ch, 384 kbps l Русский [Синема УС]

MediaInfo:

Общее
Полное имя : F:\[Anf]_The Furnace.(2020)_WEB-DLRip.avi
Формат : AVI
Формат/Информация : Audio Video Interleave
Профиль формата : OpenDML
Размер файла : 2,04 Гбайт
Продолжительность : 1 ч. 56 м.
Общий поток : 2 503 Кбит/сек
Программа кодирования : VirtualDubMod 1.5.10.3 | www.virtualdub-fr.org || (build 2550/release)
Библиотека кодирования : VirtualDub build 35491/release
Видео
Идентификатор : 0
Формат : MPEG-4 Visual
Профиль формата : Advanced Simple@L5
Настройки формата : BVOP2 / Custom Matrix
Параметр BVOP формата : 2
Параметр QPel формата : Нет
Параметр GMC формата : Без точки перехода
Параметр матрицы формата : Выборочная
Идентификатор кодека : XVID
Идентификатор кодека/Подсказка : XviD
Продолжительность : 1 ч. 56 м.
Битрейт : 2 107 Кбит/сек
Ширина : 720 пикселей
Высота : 304 пикселя
Соотношение сторон : 2,35:1
Частота кадров : 23,976 (24000/1001) кадра/сек
Цветовое пространство : YUV
Субдискретизация насыщенности : 4:2:0
Битовая глубина : 8 бит
Тип развёртки : Прогрессивная
Метод сжатия : С потерями
Бит/(Пиксели*Кадры) : 0.401
Размер потока : 1,72 Гбайт (84%)
Библиотека кодирования : XviD 1.2.1 (UTC 2008-12-04)
Аудио
Идентификатор : 1
Формат : AC-3
Формат/Информация : Audio Coding 3
Коммерческое название : Dolby Digital
Идентификатор кодека : 2000
Продолжительность : 1 ч. 56 м.
Вид битрейта : Постоянный
Битрейт : 384 Кбит/сек
Каналы : 2 канала
Channel layout : L R
Частота : 48,0 КГц
Частота кадров : 31,250 кадров/сек (1536 SPF)
Метод сжатия : С потерями
Размер потока : 320 Мбайт (15%)
Выравнивание : Разделение по промежуткам
Продолжительность промежутка : 42 мс. (1,00 видеокадр)
Время предзагрузки промежутка : 500 мс.
Service kind : Complete Main
Скриншоты: Все одноименные релизы в Клубе Время раздачи: с 12:00 до 24:00 (до первых 3-5 скачавших)Нажмёте -мне будет очень приятно
[Профиль] [ЛС]
Показать сообщения:    
Ответить на тему

Текущее время: 29-Фев 12:33

Часовой пояс: UTC ± 0



Вы не можете начинать темы
Вы не можете отвечать на сообщения
Вы не можете редактировать свои сообщения
Вы не можете удалять свои сообщения
Вы не можете голосовать в опросах
Вы не можете прикреплять файлы к сообщениям
Вы не можете скачивать файлы

[  Время выполнения: 0,039 сек  |  MySQL: 0,003 сек (9%) · 3 запр.  |  GZIP выкл  |  Память: 422,29 KB / 1,74 MB / 1,34 MB  |  Лимит: 16 16 15  ]