Никто / Nobody (2021) WEBRip [H.264/1080p-LQ] [Line, AD]

Ответить на тему
 
Автор Сообщение

admin ®

Пол: Не указан

Стаж: 4 месяца 27 дня

Сообщений: 10110

Создавать темы 30-Янв-2024 13:45

[Цитировать]

Никто / Nobody (2021) WEBRip [H.264/1080p-LQ] - Производство: США, 87North, Dentsu, Eighty Two Films, Odenkirk Provissiero Entertainment, Perfect World (Beijing) Pictures Co.
Жанр: боевик, триллер, криминал
Режиссер: Илья Найшуллер
Продюсер: Боб Оденкёрк, Марк Провиссьеро, Браден Афтегуд
Актеры: Боб Оденкёрк, Алексей Серебряков, Конни Нильсен, Кристофер Ллойд, Майкл Айронсайд, Колин Сэлмон, RZA, Билли Маклеллан, Арая Менгеша, Гейдж Манро
Описание:
Непримечательный и незаметный человек живёт обычной жизнью, пока однажды, спасая женщину от нападения бандитов, не отправляет одного из хулиганов в больницу. Лишь позже он узнаёт, что это был брат влиятельного гангстера, который теперь жаждет мести.
Возраст: 18+ (зрителям, достигшим 18 лет. запрещено для детей)
Рейтинг MPAA: R (лицам до 17 лет обязательно присутствие взрослого)
Дата мировой премьеры: 18 марта 2021
Дата российской премьеры: 18 марта 2021, «UPI»
Продолжительность: 01:31:23
Качество видео: WEBRip
Перевод: Дублированный (Чистый звук)
Субтитры: Английские (хардсаб на русскую речь)
Реклама: Присутствует баннер
Видео: AVC/H.264, 1920x804 (2.40:1), 9720 kbps, 23.976 fps
Аудио: АС3, 2 ch, 48 kHz, 384 Kbps | Русский

MediaInfo:

Общее
Уникальный идентификатор : 235062926834097543130505072187295086715 (0xB0D77913F0A0550288B7D04DFCCF387B)
Полное имя : D:\Никто.2021.WEBRip.[1080p].Soft-Torrent - торрент игры программы фильмы книги скачать.mkv
Формат : Matroska
Версия формата : Version 4
Размер файла : 6,45 Гбайт
Продолжительность : 1 ч. 31 м.
Режим общего битрейта : Переменный
Общий поток : 10,1 Мбит/сек
Название фильма : Никто.2021.WEBRip.[1080p].Soft-Torrent - торрент игры программы фильмы книги скачать
Дата кодирования : UTC 2021-04-15 19:09:28
Программа кодирования : mkvmerge v8.3.0 ('Over the Horizon') 64bit
Библиотека кодирования : libebml v1.3.1 + libmatroska v1.4.2
Видео
Идентификатор : 1
Формат : AVC
Формат/Информация : Advanced Video Codec
Профиль формата : High@L4.1
Настройки формата : CABAC / 4 Ref Frames
Параметр CABAC формата : Да
Параметр RefFrames формата : 4 кадра
Идентификатор кодека : V_MPEG4/ISO/AVC
Продолжительность : 1 ч. 31 м.
Вид битрейта : Переменный
Битрейт : 9720 Кбит/сек
Номинальный битрейт : 11,0 Мбит/сек
Максимальный битрейт : 11,0 Мбит/сек
Ширина : 1920 пикселей
Высота : 804 пикселя
Соотношение сторон : 2,40:1
Режим частоты кадров : Постоянный
Частота кадров : 23,976 (24000/1001) кадра/сек
Стандарт вещания : Component
Цветовое пространство : YUV
Субдискретизация насыщенности : 4:2:0
Битовая глубина : 8 бит
Тип развёртки : Прогрессивная
Бит/(Пиксели*Кадры) : 0.263
Размер потока : 6,20 Гбайт (96%)
Библиотека кодирования : x264 core 155
Настройки программы : cabac=1 / ref=4 / deblock=1:0:0 / analyse=0x3:0x3 / me=dia / subme=1 / psy=1 / psy_rd=1.00:0.00 / mixed_ref=0 / me_range=16 / chroma_me=1 / trellis=0 / 8x8dct=1 / cqm=1 / deadzone=21,11 / fast_pskip=1 / chroma_qp_offset=0 / threads=25 / lookahead_threads=4 / sliced_threads=0 / slices=1 / nr=0 / decimate=1 / interlaced=0 / minigop=0 / stitchable=1 / constrained_intra=0 / bframes=2 / b_pyramid=0 / b_adapt=0 / b_bias=0 / direct=1 / weightb=1 / open_gop=1 / weightp=0 / keyint=240 / keyint_min=23 / scenecut=40 / intra_refresh=0 / rc_lookahead=0 / rc=cbr / mbtree=0 / bitrate=11000 / ratetol=1.0 / qcomp=0.60 / qpmin=1 / qpmax=69 / qpstep=4 / vbv_maxrate=11000 / vbv_bufsize=11000 / nal_hrd=vbr / filler=0 / ip_ratio=1.40 / pb_ratio=1.30 / aq=1:1.00
Язык : English
Default : Да
Forced : Нет
Цветовой диапазон : Limited
Основные цвета : BT.709
Характеристики трансфера : BT.709
Коэффициенты матрицы : BT.709
Аудио
Идентификатор : 2
Формат : AC-3
Формат/Информация : Audio Coding 3
Коммерческое название : Dolby Digital
Идентификатор кодека : A_AC3
Продолжительность : 1 ч. 31 м.
Вид битрейта : Постоянный
Битрейт : 384 Кбит/сек
Каналы : 2 канала
ChannelLayout : L R
Частота : 48,0 КГц
Частота кадров : 31,250 кадров/сек (1536 SPF)
Битовая глубина : 16 бит
Метод сжатия : С потерями
Размер потока : 251 Мбайт (4%)
Язык : Russian
ServiceKind/String : Complete Main
Default : Да
Forced : Нет
Скриншоты:
Все одноименные релизы в КлубеВремя раздачи: 24/7 (круглосуточно) (до появления первых 3-5 скачавших)
[Профиль] [ЛС]
Показать сообщения:    
Ответить на тему

Текущее время: 25-Фев 22:36

Часовой пояс: UTC ± 0



Вы не можете начинать темы
Вы не можете отвечать на сообщения
Вы не можете редактировать свои сообщения
Вы не можете удалять свои сообщения
Вы не можете голосовать в опросах
Вы не можете прикреплять файлы к сообщениям
Вы не можете скачивать файлы

[  Время выполнения: 0,039 сек  |  MySQL: 0,003 сек (9%) · 3 запр.  |  GZIP выкл  |  Память: 422,29 KB / 1,74 MB / 1,36 MB  |  Лимит: 8 9 11  ]