Лазарус / Lazarus (2021) WEBRip [MVO] [AD]

Ответить на тему
 
Автор Сообщение

admin ®

Пол: Не указан

Стаж: 4 месяца 27 дня

Сообщений: 10110

Создавать темы 30-Янв-2024 13:40

[Цитировать]

Лазарус / Lazarus (2021) WEBRip [MVO] - Производство: США, Overdog Entertainment, Phoenix Rising Films, Wonder Studios
Жанр: боевик, фантастика
Режиссер: Р.Л. Скотт
Актеры: Шон Риггз, Костас Мэндилор, Шэйн Бролли, Ники Мишо, Ноэль Гульеми, Линк Хэнд, Майя, Адам Кендрик, Кристина Рен, Андре МакКой
Описание:
Погибнув в неравной борьбе с преступным миром Парадайз Сити, герой-одиночка Рэй Лазарус оказывается воскрешён неизвестной тёмной силой, которая дарует ему сверхъестественные способности. Однако, всё имеет свою цену, и теперь, чтобы продолжать существование в этом мире, Рэю необходимо высасывать жизненную силу других.
[kp]https://www.kinopoisk.ru/film/988670/[/kp] [imdb]https://www.imdb.com/title/tt5821728[/imdb]
Дата мировой премьеры: 26 февраля 2021 года
Продолжительность: 01:46:44
Качество видео: WEBRip
Перевод: Многоголосый профессиональный (@MUZOBOZ@)
Субтитры: Отсутствуют
Реклама: Присутствует видео, аудио реклама + баннер
Видео: Xvid, 720х304, ~1565 Kbps
Аудио: AC3, 2 ch, 256 Kbps - Русский

MediaInfo:

Общее
Полное имя : D:\Dowlands\Lazarus.2021.P.WEB-DLRip.14OOMB.avi
Формат : AVI
Формат/Информация : Audio Video Interleave
Размер файла : 1,36 Гбайт
Продолжительность : 1 ч. 46 м.
Общий поток : 1 831 Кбит/сек
Программа кодирования : VirtualDubMod 1.5.10.3 | www.virtualdub-fr.org || (build 2550/release)
Библиотека кодирования : VirtualDubMod build 2550/release
Видео
Идентификатор : 0
Формат : MPEG-4 Visual
Профиль формата : Advanced Simple@L5
Настройки формата : BVOP2 / Custom Matrix
Параметр BVOP формата : 2
Параметр QPel формата : Нет
Параметр GMC формата : Без точки перехода
Параметр матрицы формата : Выборочная
Идентификатор кодека : XVID
Идентификатор кодека/Подсказка : XviD
Продолжительность : 1 ч. 46 м.
Битрейт : 1 565 Кбит/сек
Ширина : 720 пикселей
Высота : 304 пикселя
Соотношение сторон : 2,35:1
Частота кадров : 23,976 (24000/1001) кадра/сек
Цветовое пространство : YUV
Субдискретизация насыщенности : 4:2:0
Битовая глубина : 8 бит
Тип развёртки : Прогрессивная
Метод сжатия : С потерями
Бит/(Пиксели*Кадры) : 0.298
Размер потока : 1,17 Гбайт (85%)
Библиотека кодирования : XviD 1.2.1 (UTC 2008-12-04)
Аудио
Идентификатор : 1
Формат : AC-3
Формат/Информация : Audio Coding 3
Коммерческое название : Dolby Digital
Идентификатор кодека : 2000
Продолжительность : 1 ч. 46 м.
Вид битрейта : Постоянный
Битрейт : 256 Кбит/сек
Каналы : 2 канала
Channel layout : L R
Частота : 48,0 КГц
Частота кадров : 31,250 кадров/сек (1536 SPF)
Метод сжатия : С потерями
Размер потока : 195 Мбайт (14%)
Выравнивание : Разделение по промежуткам
Продолжительность промежутка : 42 мс. (1,00 видеокадр)
Время предзагрузки промежутка : 500 мс.
Service kind : Complete Main
Скриншоты:
Все одноименные релизы в КлубеВремя раздачи: 24/7 (до появления первых 3-5 скачавших)
[Профиль] [ЛС]
Показать сообщения:    
Ответить на тему

Текущее время: 25-Фев 20:56

Часовой пояс: UTC ± 0



Вы не можете начинать темы
Вы не можете отвечать на сообщения
Вы не можете редактировать свои сообщения
Вы не можете удалять свои сообщения
Вы не можете голосовать в опросах
Вы не можете прикреплять файлы к сообщениям
Вы не можете скачивать файлы

[  Время выполнения: 0,043 сек  |  MySQL: 0,003 сек (7%) · 3 запр.  |  GZIP выкл  |  Память: 422,29 KB / 1,74 MB / 1,34 MB  |  Лимит: 11 10 11  ]