Средоточие боли / Trigger Point (2021) WEBRip [H.264/1080p-LQ] [MVO] [AD]

Ответить на тему
 
Автор Сообщение

admin ®

Пол: Не указан

Стаж: 5 месяца

Сообщений: 10110

Создавать темы 30-Янв-2024 13:27

[Цитировать]

Средоточие боли / Trigger Point (2021) WEBRip [H.264/1080p-LQ]- Производство: Канада / Chicken Soup for the Soul Entertainment, High Park Entertainment, Landmark Studio Group
Жанр: боевик, триллер
Режиссер: Брэд Тернер
Актеры: Бэрри Пеппер, Лора Вандервурт, Колм Фиор, Назнин Контрактор, Грег Брайк, Ив Харлоу, Джейн Иствуд, Рэйнбоу Сан Фрэнкс, Брайан Кук, Хуан Карлос Велис
Описание:
Бывший агент ЦРУ из сверхсекретного подразделения, которое было расформировано по его вине, вынужден вновь взяться за оружие, после серии убийств своих бывших соратников.
Дата мировой премьеры: 16 апреля 2021
Продолжительность: 01:21:30
Качество видео: WEBRip
Перевод: Многоголосый любительский (MUZOBOZ)
Субтитры: Отсутствуют
Реклама: Присутствует баннер.
Видео: AVC/H.264, 1920x802, ~8717 Kbps
Аудио: AC3, 2 ch, 384 Kbps

MediaInfo:

Общее
Уникальный идентификатор : 211504861089998698306909592128962022981 (0x9F1E5AC2D98026E2BE10B3BF7D0DCE45)
Полное имя : D:\NNM\Средоточие боли\Trigger.Point.2021.WEBRip.1080p-LQ.mkv
Формат : Matroska
Версия формата : Version 4
Размер файла : 5,29 Гбайт
Продолжительность : 1 ч. 21 м.
Режим общего битрейта : Переменный
Общий поток : 9 286 Кбит/сек
Дата кодирования : UTC 2021-04-24 12:46:12
Программа кодирования : mkvmerge v6.9.1 ('Blue Panther') 32bit built on Apr 18 2014 18:15:44
Библиотека кодирования : libebml v1.3.0 + libmatroska v1.4.1
Видео
Идентификатор : 1
Формат : AVC
Формат/Информация : Advanced Video Codec
Профиль формата : High@L4.1
Настройки формата : CABAC / 4 Ref Frames
Параметр CABAC формата : Да
Параметр RefFrames формата : 4 кадра
Идентификатор кодека : V_MPEG4/ISO/AVC
Продолжительность : 1 ч. 21 м.
Вид битрейта : Переменный
Битрейт : 8 717 Кбит/сек
Номинальный битрейт : 10 000 Кбит/сек
Максимальный битрейт : 10 000 Кбит/сек
Ширина : 1 920 пикселей
Высота : 802 пикселя
Соотношение сторон : 2,40:1
Режим частоты кадров : Постоянный
Частота кадров : 23,976 (24000/1001) кадра/сек
Стандарт вещания : Component
Цветовое пространство : YUV
Субдискретизация насыщенности : 4:2:0
Битовая глубина : 8 бит
Тип развёртки : Прогрессивная
Бит/(Пиксели*Кадры) : 0.236
Размер потока : 4,96 Гбайт (94%)
Default : Да
Forced : Нет
Цветовой диапазон : Limited
Основные цвета : BT.709
Характеристики трансфера : BT.709
Коэффициенты матрицы : BT.709
Аудио
Идентификатор : 2
Формат : AC-3
Формат/Информация : Audio Coding 3
Коммерческое название : Dolby Digital
Идентификатор кодека : A_AC3
Продолжительность : 1 ч. 21 м.
Вид битрейта : Постоянный
Битрейт : 384 Кбит/сек
Каналы : 2 канала
Channel layout : L R
Частота : 48,0 КГц
Частота кадров : 31,250 кадров/сек (1536 SPF)
Метод сжатия : С потерями
Размер потока : 224 Мбайт (4%)
Язык : Russian
Service kind : Complete Main
Default : Да
Forced : Нет
Скриншоты: Все одноименные релизы в КлубеВремя раздачи: 24/7 (до первых 3-5 скачавших)
[Профиль] [ЛС]
Показать сообщения:    
Ответить на тему

Текущее время: 28-Фев 22:12

Часовой пояс: UTC ± 0



Вы не можете начинать темы
Вы не можете отвечать на сообщения
Вы не можете редактировать свои сообщения
Вы не можете удалять свои сообщения
Вы не можете голосовать в опросах
Вы не можете прикреплять файлы к сообщениям
Вы не можете скачивать файлы

[  Время выполнения: 0,042 сек  |  MySQL: 0,003 сек (7%) · 3 запр.  |  GZIP выкл  |  Память: 422,29 KB / 1,74 MB / 1,34 MB  |  Лимит: 21 18 18  ]