Дьявол в деталях / The Little Things (2021) WEBRip [H.264/1080p-LQ] [Line, AD]

Ответить на тему
 
Автор Сообщение

admin ®

Пол: Не указан

Стаж: 4 месяца 27 дня

Сообщений: 10110

Создавать темы 30-Янв-2024 13:11

[Цитировать]

Дьявол в деталях / The Little Things (2021) WEBRip [H.264/1080p-LQ]- Производство: США / Gran Via, Warner Bros
Жанр: триллер, детектив
Режиссер: Джон Ли Хэнкок
Актеры: Дензел Вашингтон, Рами Малек, Джаред Лето, Кристофер Бауэр, Майкл Хайатт, Терри Кинни, Натали Моралес, Изабель Арраиса, Джорис Джарски, Гленн Моршауэр
Описание:
Заместителя шерифа округа Керн Джо Дикона по прозвищу Дики отправляют в Лос-Анджелес – обычная командировка для сбора улик. Но там его привлекают к поискам серийного убийцы, который терроризирует город. Охоту на маньяка возглавляет Джим Бэкстер, сержант департамента шерифа Лос-Анджелеса. Его впечатляет полицейское чутье Дики, и он неофициально привлекает его к расследованию. Они всё ближе к цели, но Бэкстер не догадывается, что тем самым они воскрешают призраков прошлого Дики, раскрывая такие тайны, которые могут всколыхнуть куда более темные воды, чем его нынешнее дело.
Возраст: 18+ (зрителям, достигшим 18 лет. запрещено для детей)
Рейтинг MPAA: R (лицам до 17 лет обязательно присутствие взрослого)
Дата мировой премьеры: 27 января 2021
Дата премьеры в России: 28 января 2021

Продолжительность: 02:07:00
Качество видео: WEBRip
Перевод: Дублированный (чистый звук)
Субтитры: Отсутствуют
Реклама: Присутствует баннер.
Видео: AVC/H.264, 1920x804, ~6953 Kbps
Аудио: AC3, 2 ch, 384 Kbps

MediaInfo:

Общее
Полное имя : D:\NNM\Дьявол в деталях\The.Little.Things.2021.WEBRip.1080p-LQ.mkv
Формат : Matroska
Версия формата : Version 2
Размер файла : 6,64 Гбайт
Продолжительность : 2 ч. 7 м.
Режим общего битрейта : Переменный
Общий поток : 7 486 Кбит/сек
Программа кодирования : libmatroska 1.4.1
Библиотека кодирования : SolveigMM Matroska Muxer Version 1.0.1904.23
Видео
Идентификатор : 1
Формат : AVC
Формат/Информация : Advanced Video Codec
Профиль формата : High@L4.1
Настройки формата : CABAC / 4 Ref Frames
Параметр CABAC формата : Да
Параметр RefFrames формата : 4 кадра
Идентификатор кодека : V_MPEG4/ISO/AVC
Продолжительность : 2 ч. 7 м.
Вид битрейта : Переменный
Битрейт : 6 953 Кбит/сек
Номинальный битрейт : 8 000 Кбит/сек
Максимальный битрейт : 8 000 Кбит/сек
Ширина : 1 920 пикселей
Высота : 804 пикселя
Соотношение сторон : 2,40:1
Режим частоты кадров : Постоянный
Частота кадров : 23,976 (24000/1001) кадра/сек
Стандарт вещания : Component
Цветовое пространство : YUV
Субдискретизация насыщенности : 4:2:0
Битовая глубина : 8 бит
Тип развёртки : Прогрессивная
Бит/(Пиксели*Кадры) : 0.188
Размер потока : 6,17 Гбайт (93%)
Default : Нет
Forced : Нет
Цветовой диапазон : Limited
Основные цвета : BT.709
Характеристики трансфера : BT.709
Коэффициенты матрицы : BT.709
Аудио
Идентификатор : 2
Формат : AC-3
Формат/Информация : Audio Coding 3
Коммерческое название : Dolby Digital
Идентификатор кодека : A_AC3
Продолжительность : 2 ч. 7 м.
Вид битрейта : Постоянный
Битрейт : 384 Кбит/сек
Каналы : 2 канала
Channel layout : L R
Частота : 48,0 КГц
Частота кадров : 31,250 кадров/сек (1536 SPF)
Метод сжатия : С потерями
Размер потока : 349 Мбайт (5%)
Язык : Russian
Service kind : Complete Main
Default : Нет
Forced : Нет
Скриншоты: Все одноименные релизы в КлубеВремя раздачи: 24/7 (до первых 3-5 скачавших)
[Профиль] [ЛС]
Показать сообщения:    
Ответить на тему

Текущее время: 25-Фев 22:02

Часовой пояс: UTC ± 0



Вы не можете начинать темы
Вы не можете отвечать на сообщения
Вы не можете редактировать свои сообщения
Вы не можете удалять свои сообщения
Вы не можете голосовать в опросах
Вы не можете прикреплять файлы к сообщениям
Вы не можете скачивать файлы

[  Время выполнения: 0,032 сек  |  MySQL: 0,003 сек (8%) · 3 запр.  |  GZIP выкл  |  Память: 422,29 KB / 1,72 MB / 1,32 MB  |  Лимит: 18 20 18  ]