57 секунд / 57 Seconds (2023) - Скачать торрент

Ответить на тему
 
Автор Сообщение

admin ®

Пол: Не указан

Стаж: 7 месяца 26 дня

Сообщений: 11520

Создавать темы 30-Сен-2023 14:46

[Цитировать]

57 секунд / 57 Seconds (2023)- Производство: США / Ashland Hill Media Finance, Curmudgeon Films
Жанр: фантастика, триллер
Режиссер: Расти Кандифф
Актеры: Морган Фриман, Джош Хатчерсон, Грег Джерманн, Лови Симон, Бевин Брю, Грифф Ферст, Сэмми Ротиби, Аарон Хэнсон,Маркус Браун, Дэвид Каллауэй
Описание:
Техноблогер Франклин случайно предотвращает покушение на известного визионера и инновационного гуру, достигшего невероятных успехов в сфере медицины. Подобрав оброненное им кольцо, молодой человек обнаруживает, что оно дает своему носителю возможность переноситься в прошлое на 57 секунд. Франклин решает воспользоваться находкой и с помощью чудо-кольца отомстить тем, кого он считает виновными в смерти своей сестры.
Возраст: 18+ (зрителям, достигшим 18 лет. запрещено для детей)
Рейтинг MPAA: R (лицам до 17 лет обязательно присутствие взрослого)
Релиз от: EniaHD
Продолжительность: 01:35:36
Качество видео: WEBRip (кинопоиск)
Перевод: Дублированный, профессиональный двухголосый
Язык озвучки: Русский, английский
Субтитры: Русские, английские (SDH)
Видео: AVC/H.264, 1920x800, 6000 Kbps, 25 fps
Аудио 1: E-AC3, 6 ch, 448 Kbps - Русский (DUB, Pride Production)
Аудио 2: E-AC3, 6 ch, 448 Kbps - Русский (DVO, Кубик в Кубе) без цензуры 18+
Аудио 3: E-AC3, 6 ch, 448 Kbps - Английский

MediaInfo:

General
Unique ID : 303380261028545467598068493454903871957 (0xE43CE9B57569AB7283916135B37409D5)
Complete name : 57.Seconds.2023.1080p.WEB-DL.DDP5.1.H.264-EniaHD.mkv
Format : Matroska
Format version : Version 4
File size : 4.89 GiB
Duration : 1 h 35 min
Overall bit rate : 7 322 kb/s
Frame rate : 25.000 FPS
Movie name : 57 Seconds (2023) - EniaHD
Writing application : mkvmerge v57.0.0 ('Till The End') 64-bit
Writing library : libebml v1.4.2 + libmatroska v1.6.4
Video
ID : 1
Format : AVC
Format/Info : Advanced Video Codec
Format profile : Progressive High@L4
Format settings : CABAC / 5 Ref Frames
Format settings, CABAC : Yes
Format settings, Reference fra : 5 frames
Codec ID : V_MPEG4/ISO/AVC
Duration : 1 h 35 min
Bit rate : 6 000 kb/s
Width : 1 920 pixels
Height : 800 pixels
Display aspect ratio : 2.40:1
Frame rate mode : Constant
Frame rate : 25.000 FPS
Color space : YUV
Chroma subsampling : 4:2:0
Bit depth : 8 bits
Scan type : Progressive
Bits/(Pixel*Frame) : 0.156
Stream size : 3.99 GiB (82%)
Writing library : x264 core 157
Encoding settings : cabac=1 / ref=5 / deblock=1:0:0 / analyse=0x3:0x133 / me=umh / subme=10 / psy=1 / psy_rd=1.00:0.00 / mixed_ref=1 / me_range=24 / chroma_me=1 / trellis=2 / 8x8dct=1 / cqm=0 / deadzone=21,11 / fast_pskip=1 / chroma_qp_offset=-2 / threads=25 / lookahead_threads=4 / sliced_threads=0 / nr=0 / decimate=1 / interlaced=0 / bluray_compat=0 / stitchable=1 / constrained_intra=0 / bframes=8 / b_pyramid=2 / b_adapt=2 / b_bias=0 / direct=3 / weightb=1 / open_gop=0 / weightp=2 / keyint=250 / keyint_min=25 / scenecut=40 / intra_refresh=0 / rc_lookahead=60 / rc=2pass / mbtree=1 / bitrate=6000 / ratetol=1.0 / qcomp=0.60 / qpmin=0 / qpmax=69 / qpstep=4 / cplxblur=20.0 / qblur=0.5 / vbv_maxrate=6600 / vbv_bufsize=12000 / nal_hrd=none / filler=0 / ip_ratio=1.40 / aq=1:1.00
Default : Yes
Forced : No
Audio #1
ID : 2
Format : E-AC-3
Format/Info : Enhanced AC-3
Commercial name : Dolby Digital Plus
Codec ID : A_EAC3
Duration : 1 h 35 min
Bit rate mode : Constant
Bit rate : 448 kb/s
Channel(s) : 6 channels
Channel layout : L R C LFE Ls Rs
Sampling rate : 48.0 kHz
Frame rate : 31.250 FPS (1536 SPF)
Compression mode : Lossy
Stream size : 306 MiB (6%)
Title : Pride Production
Language : Russian
Service kind : Complete Main
Default : Yes
Forced : No
Audio #2
ID : 3
Format : E-AC-3
Format/Info : Enhanced AC-3
Commercial name : Dolby Digital Plus
Codec ID : A_EAC3
Duration : 1 h 35 min
Bit rate mode : Constant
Bit rate : 448 kb/s
Channel(s) : 6 channels
Channel layout : L R C LFE Ls Rs
Sampling rate : 48.0 kHz
Frame rate : 31.250 FPS (1536 SPF)
Compression mode : Lossy
Stream size : 306 MiB (6%)
Title : Кубик в Кубе 18+
Language : Russian
Service kind : Complete Main
Default : No
Forced : No
Audio #3
ID : 4
Format : E-AC-3
Format/Info : Enhanced AC-3
Commercial name : Dolby Digital Plus
Codec ID : A_EAC3
Duration : 1 h 35 min
Bit rate mode : Constant
Bit rate : 448 kb/s
Channel(s) : 6 channels
Channel layout : L R C LFE Ls Rs
Sampling rate : 48.0 kHz
Frame rate : 31.250 FPS (1536 SPF)
Compression mode : Lossy
Stream size : 306 MiB (6%)
Title : English
Language : English
Service kind : Complete Main
Default : No
Forced : No
Text #1
ID : 5
Format : UTF-8
Codec ID : S_TEXT/UTF8
Codec ID/Info : UTF-8 Plain Text
Duration : 1 h 27 min
Bit rate : 107 b/s
Frame rate : 0.267 FPS
Count of elements : 1399
Stream size : 69.1 KiB (0%)
Title : Russian
Language : Russian
Default : No
Forced : No
Text #2
ID : 6
Format : UTF-8
Codec ID : S_TEXT/UTF8
Codec ID/Info : UTF-8 Plain Text
Duration : 1 h 34 min
Bit rate : 87 b/s
Frame rate : 0.346 FPS
Count of elements : 1967
Stream size : 60.9 KiB (0%)
Title : English (SDH)
Language : English
Default : No
Forced : No
Menu
00:00:00.000 : en:Chapter 1
00:05:56.280 : en:Chapter 2
00:14:16.760 : en:Chapter 3
00:22:37.800 : en:Chapter 4
00:30:59.441 : en:Chapter 5
00:40:20.521 : en:Chapter 6
00:46:10.962 : en:Chapter 7
00:52:24.882 : en:Chapter 8
00:58:54.843 : en:Chapter 9
01:08:57.643 : en:Chapter 10
01:15:35.243 : en:Chapter 11
01:22:01.684 : en:Chapter 12
01:26:56.524 : en:Chapter 13
Скриншоты:
Все одноименные релизы в КлубеВремя раздачи: 24/7 (мультитрекер)
[Профиль] [ЛС]
Показать сообщения:    
Ответить на тему

Текущее время: 24-Май 12:45

Часовой пояс: UTC ± 0



Вы не можете начинать темы
Вы не можете отвечать на сообщения
Вы не можете редактировать свои сообщения
Вы не можете удалять свои сообщения
Вы не можете голосовать в опросах
Вы не можете прикреплять файлы к сообщениям
Вы не можете скачивать файлы

[  Время выполнения: 0,049 сек  |  MySQL: 0,006 сек (11%) · 5 запр.  |  GZIP выкл  |  Память: 422,49 KB / 1,75 MB / 1,37 MB  |  Лимит: 7 7 7  ]