Спецслужба: Восстание Черного лебедя / Спецслужба: Сигнал тревоги / SAS: Red Notice (2021) WEBRip [H.264/1080p-LQ] [MVO, AD]

Ответить на тему
 
Автор Сообщение

admin ®

Пол: Не указан

Стаж: 4 месяца 23 дня

Сообщений: 10110

Создавать темы 30-Янв-2024 13:01

[Цитировать]

Спецслужба: Восстание Черного лебедя / SAS: Red Notice (2021) WEBRip [H.264/1080p-LQ] - Производство: Великобритания, Венгрия, Нидерланды, Швейцария / Altitude Film Entertainment, Creativity Capital, Electric Shadow Company, The
Жанр: боевик
Режиссер: Магнус Мартенс
Продюсер: Лоуренс Малкин, Аллан Нибло, Georgia Bayliff,
Актеры: Сэм Хьюэн, Ханна Джон-Кэймен, Руби Роуз, Энди Серкис, Том Хоппер, Овайн Йомэн, Том Уилкинсон, Рэй Пантаки, Сара Винтер, Джин Лу
Описание:
Том - спецагент, который всё никак не может выкроить времени на свою девушку. Когда он наконец решает сделать ей предложение, в его планы вмешивается небольшая частная группировка, которая угоняет поезд под Ла-Маншем, на котором они едут в Париж
Рейтинг MPAA: R (лицам до 17 лет обязательно присутствие взрослого)
Дата мировой премьеры: 12 марта 2021
Продолжительность: 01:58:43
Качество видео: WEBRip
Перевод: Многоголосый любительский (@MUZOBOZ@)
Субтитры: Отсутствуют
Реклама: Присутствует баннер, звуковая реклама
Видео: AVC/H.264, 1920x800, ~8026 Kbps
Аудио: AAC, 2 ch, 384 Kbps

MediaInfo:

Общее
Уникальный идентификатор : 214535936688021456476699662490025012277 (0xA1661E537D8B26D487E87EC1648B2C35)
Полное имя : SAS.Red.Notice.(2021).WEBRip.1080p.mkv
Формат : Matroska
Версия формата : Version 4
Размер файла : 6,97 Гбайт
Продолжительность : 1 ч. 58 м.
Режим общего битрейта : Переменный
Общий поток : 8410 Кбит/сек
Дата кодирования : UTC 2021-03-15 18:39:47
Программа кодирования : mkvmerge v8.3.0 ('Over the Horizon') 64bit
Библиотека кодирования : libebml v1.3.1 + libmatroska v1.4.2
Видео
Идентификатор : 1
Формат : AVC
Формат/Информация : Advanced Video Codec
Профиль формата : High@L4.1
Настройки формата : CABAC / 4 Ref Frames
Параметр CABAC формата : Да
Параметр RefFrames формата : 4 кадра
Идентификатор кодека : V_MPEG4/ISO/AVC
Продолжительность : 1 ч. 58 м.
Вид битрейта : Переменный
Битрейт : 8026 Кбит/сек
Номинальный битрейт : 9000 Кбит/сек
Максимальный битрейт : 9000 Кбит/сек
Ширина : 1920 пикселей
Высота : 800 пикселей
Соотношение сторон : 2,40:1
Режим частоты кадров : Постоянный
Частота кадров : 23,976 (24000/1001) кадра/сек
Стандарт вещания : Component
Цветовое пространство : YUV
Субдискретизация насыщенности : 4:2:0
Битовая глубина : 8 бит
Тип развёртки : Прогрессивная
Бит/(Пиксели*Кадры) : 0.218
Размер потока : 6,66 Гбайт (95%)
Библиотека кодирования : x264 core 155
Настройки программы : cabac=1 / ref=4 / deblock=1:0:0 / analyse=0x3:0x3 / me=dia / subme=1 / psy=1 / psy_rd=1.00:0.00 / mixed_ref=0 / me_range=16 / chroma_me=1 / trellis=0 / 8x8dct=1 / cqm=1 / deadzone=21,11 / fast_pskip=1 / chroma_qp_offset=0 / threads=25 / lookahead_threads=4 / sliced_threads=0 / slices=1 / nr=0 / decimate=1 / interlaced=0 / minigop=0 / stitchable=1 / constrained_intra=0 / bframes=2 / b_pyramid=0 / b_adapt=0 / b_bias=0 / direct=1 / weightb=1 / open_gop=1 / weightp=0 / keyint=240 / keyint_min=23 / scenecut=40 / intra_refresh=0 / rc_lookahead=0 / rc=cbr / mbtree=0 / bitrate=9000 / ratetol=1.0 / qcomp=0.60 / qpmin=1 / qpmax=69 / qpstep=4 / vbv_maxrate=9000 / vbv_bufsize=9000 / nal_hrd=vbr / filler=0 / ip_ratio=1.40 / pb_ratio=1.30 / aq=1:1.00
Default : Да
Forced : Нет
Цветовой диапазон : Limited
Основные цвета : BT.709
Характеристики трансфера : BT.709
Коэффициенты матрицы : BT.709
Аудио
Идентификатор : 2
Формат : AAC Main
Формат/Информация : Advanced Audio Codec
Идентификатор кодека : A_AAC-1
Продолжительность : 1 ч. 58 м.
Битрейт : 384 Кбит/сек
Каналы : 2 канала
Channel layout : L R
Частота : 48,0 КГц
Частота кадров : 46,875 кадров/сек (1024 SPF)
Метод сжатия : С потерями
Размер потока : 324 Мбайт (5%)
Заголовок : MVO (@MUZOBOZ@)
Язык : Russian
Default : Да
Forced : Нет
Скриншоты:
Все одноименные релизы в КлубеВремя раздачи: 24/7 (мультитрекерная раздача)
[Профиль] [ЛС]
Показать сообщения:    
Ответить на тему

Текущее время: 22-Фев 00:07

Часовой пояс: UTC ± 0



Вы не можете начинать темы
Вы не можете отвечать на сообщения
Вы не можете редактировать свои сообщения
Вы не можете удалять свои сообщения
Вы не можете голосовать в опросах
Вы не можете прикреплять файлы к сообщениям
Вы не можете скачивать файлы

[  Время выполнения: 0,037 сек  |  MySQL: 0,003 сек (9%) · 3 запр.  |  GZIP выкл  |  Память: 421,85 KB / 1,74 MB / 1,34 MB  |  Лимит: 7 8 9  ]