Спецслужба: Восстание Черного лебедя / Спецслужба: Сигнал тревоги / SAS: Red Notice (2021) WEBRip [MVO, AD]

Ответить на тему
 
Автор Сообщение

admin ®

Пол: Не указан

Стаж: 4 месяца 27 дня

Сообщений: 10110

Создавать темы 30-Янв-2024 13:00

[Цитировать]

Спецслужба: Восстание Черного лебедя / SAS: Red Notice (2021) WEBRip - Производство: Великобритания, Венгрия, Нидерланды, Швейцария / Altitude Film Entertainment, Creativity Capital, Electric Shadow Company, The
Жанр: боевик
Режиссер: Магнус Мартенс
Продюсер: Лоуренс Малкин, Аллан Нибло, Georgia Bayliff,
Актеры: Сэм Хьюэн, Ханна Джон-Кэймен, Руби Роуз, Энди Серкис, Том Хоппер, Овайн Йомэн, Том Уилкинсон, Рэй Пантаки, Сара Винтер, Джин Лу
Описание:
Том - спецагент, который всё никак не может выкроить времени на свою девушку. Когда он наконец решает сделать ей предложение, в его планы вмешивается небольшая частная группировка, которая угоняет поезд под Ла-Маншем, на котором они едут в Париж
Рейтинг MPAA: R (лицам до 17 лет обязательно присутствие взрослого)
Дата мировой премьеры: 12 марта 2021
Продолжительность: 01:58:43
Качество видео: WEBRip
Перевод: Многоголосый любительский (@MUZOBOZ@)
Субтитры: Отсутствуют
Реклама: Присутствует баннер, звуковая реклама
Видео: XviD, 720x304, 1562 Kbps
Аудио: AC3, 2 ch, 192 Kbps

MediaInfo:

Общее
Полное имя : SAS.Red.Notice.(2021).WEBRip.avi
Формат : AVI
Формат/Информация : Audio Video Interleave
Размер файла : 1,46 Гбайт
Продолжительность : 1 ч. 58 м.
Общий поток : 1765 Кбит/сек
Видео
Идентификатор : 0
Формат : MPEG-4 Visual
Профиль формата : Advanced Simple@L5
Настройки формата : BVOP2
Параметр BVOP формата : 2
Параметр QPel формата : Нет
Параметр GMC формата : Без точки перехода
Параметр матрицы формата : Default (MPEG)
Идентификатор кодека : XVID
Идентификатор кодека/Подсказка : XviD
Продолжительность : 1 ч. 58 м.
Битрейт : 1562 Кбит/сек
Ширина : 720 пикселей
Высота : 304 пикселя
Соотношение сторон : 2,35:1
Частота кадров : 23,976 (24000/1001) кадра/сек
Цветовое пространство : YUV
Субдискретизация насыщенности : 4:2:0
Битовая глубина : 8 бит
Тип развёртки : Прогрессивная
Метод сжатия : С потерями
Бит/(Пиксели*Кадры) : 0.298
Размер потока : 1,30 Гбайт (88%)
Библиотека кодирования : XviD 69
Аудио
Идентификатор : 1
Формат : AC-3
Формат/Информация : Audio Coding 3
Коммерческое название : Dolby Digital
Идентификатор кодека : 2000
Продолжительность : 1 ч. 58 м.
Вид битрейта : Постоянный
Битрейт : 192 Кбит/сек
Каналы : 2 канала
Channel layout : L R
Частота : 48,0 КГц
Частота кадров : 31,250 кадров/сек (1536 SPF)
Битовая глубина : 16 бит
Метод сжатия : С потерями
Размер потока : 163 Мбайт (11%)
Выравнивание : Соединение по промежуткам
Продолжительность промежутка : 32 мс. (0,77 видеокадр)
ServiceKind/String : Complete Main
Скриншоты:
Все одноименные релизы в КлубеВремя раздачи: 24/7 (мультитрекерная раздача)
[Профиль] [ЛС]
Показать сообщения:    
Ответить на тему

Текущее время: 25-Фев 21:09

Часовой пояс: UTC ± 0



Вы не можете начинать темы
Вы не можете отвечать на сообщения
Вы не можете редактировать свои сообщения
Вы не можете удалять свои сообщения
Вы не можете голосовать в опросах
Вы не можете прикреплять файлы к сообщениям
Вы не можете скачивать файлы

[  Время выполнения: 0,034 сек  |  MySQL: 0,003 сек (9%) · 3 запр.  |  GZIP выкл  |  Память: 422,29 KB / 1,74 MB / 1,34 MB  |  Лимит: 14 13 12  ]