Бесконечность: Субъект неизвестен / Infinitum: Subject Unknown (2021) WEB-DLRip [H.264/1080p-LQ] [MVO] [AD]

Ответить на тему
 
Автор Сообщение

admin ®

Пол: Не указан

Стаж: 5 месяца

Сообщений: 10110

Создавать темы 30-Янв-2024 12:57

[Цитировать]

Бесконечность: Субъект неизвестен / Infinitum: Subject Unknown (2021) WEB-DLRip [H.264/1080p-LQ]- Производство: Великобритания / Fizz and Ginger Films
Жанр: фантастика
Режиссер: Мэттью Батлер
Актеры: Тори Харт, Иэн МакКеллен, Конлет Хилл, Грэхэм Батлер, Бен Ли, Крис Харт, Холли Дэйл Спенсер, Венди Мьюир Харт
Описание:
Девушка просыпается связанной в затхлой комнате огромного дома и не помнит, кто она и как тут оказалась. Пытаясь освободиться, она понимает, что вокруг происходят нечто необъяснимое: вещи в доме живут своей жизнью, а снаружи наоборот нет ни единой души. При этом каждый раз когда она испытывает сильный стресс от происходящего, день перезагружается и всё начинается по новой. А единственная зацепка, которая может помочь ей освободиться - это странные голоса, звучащие временами в её голове.
Дата мировой премьеры: 3 марта 2021
Продолжительность: 01:24:57
Качество видео: WEB-DLRip
Перевод: Многоголосый любительский (MUZOBOZ)
Субтитры: Отсутствуют
Реклама: Присутствует баннер.
Видео: AVC/H.264, 1916x800, ~6869 Kbps
Аудио: AC3, 2 ch, 384 Kbps

MediaInfo:

Общее
Уникальный идентификатор : 243103922930350619886899743183406277534 (0xB6E41CCB4A3374D582BE8BE492FAA39E)
Полное имя : C:\zz\Субъект неизвестен\Infinitum.Subject.Unknown.2021.WEB-DLRip.1080p-LQ.mkv
Формат : Matroska
Версия формата : Version 4
Размер файла : 4,39 Гбайт
Продолжительность : 1 ч. 24 м.
Режим общего битрейта : Переменный
Общий поток : 7 400 Кбит/сек
Дата кодирования : UTC 2021-03-23 08:21:00
Программа кодирования : mkvmerge v6.9.1 ('Blue Panther') 32bit built on Apr 18 2014 18:15:44
Библиотека кодирования : libebml v1.3.0 + libmatroska v1.4.1
Видео
Идентификатор : 1
Формат : AVC
Формат/Информация : Advanced Video Codec
Профиль формата : High@L4.1
Настройки формата : CABAC / 4 Ref Frames
Параметр CABAC формата : Да
Параметр RefFrames формата : 4 кадра
Идентификатор кодека : V_MPEG4/ISO/AVC
Продолжительность : 1 ч. 24 м.
Вид битрейта : Переменный
Битрейт : 6 869 Кбит/сек
Номинальный битрейт : 8 000 Кбит/сек
Максимальный битрейт : 8 000 Кбит/сек
Ширина : 1 916 пикселей
Высота : 800 пикселей
Соотношение сторон : 2,40:1
Режим частоты кадров : Постоянный
Частота кадров : 23,976 (24000/1001) кадра/сек
Стандарт вещания : Component
Цветовое пространство : YUV
Субдискретизация насыщенности : 4:2:0
Битовая глубина : 8 бит
Тип развёртки : Прогрессивная
Бит/(Пиксели*Кадры) : 0.187
Размер потока : 4,08 Гбайт (93%)
Default : Нет
Forced : Нет
Цветовой диапазон : Limited
Основные цвета : BT.709
Характеристики трансфера : BT.709
Коэффициенты матрицы : BT.709
Аудио
Идентификатор : 2
Формат : AC-3
Формат/Информация : Audio Coding 3
Коммерческое название : Dolby Digital
Идентификатор кодека : A_AC3
Продолжительность : 1 ч. 24 м.
Вид битрейта : Постоянный
Битрейт : 384 Кбит/сек
Каналы : 2 канала
Channel layout : L R
Частота : 48,0 КГц
Частота кадров : 31,250 кадров/сек (1536 SPF)
Метод сжатия : С потерями
Размер потока : 233 Мбайт (5%)
Язык : Russian
Service kind : Complete Main
Default : Да
Forced : Нет
Скриншоты: Все одноименные релизы в КлубеВремя раздачи: 24/7 (до первых 3-5 скачавших)
[Профиль] [ЛС]
Показать сообщения:    
Ответить на тему

Текущее время: 28-Фев 22:31

Часовой пояс: UTC ± 0



Вы не можете начинать темы
Вы не можете отвечать на сообщения
Вы не можете редактировать свои сообщения
Вы не можете удалять свои сообщения
Вы не можете голосовать в опросах
Вы не можете прикреплять файлы к сообщениям
Вы не можете скачивать файлы

[  Время выполнения: 0,041 сек  |  MySQL: 0,003 сек (8%) · 3 запр.  |  GZIP выкл  |  Память: 422,29 KB / 1,74 MB / 1,34 MB  |  Лимит: 11 12 14  ]