Колдун / Shi shen ling / The Yinyang Master (2021) WEBRip [MVO, AD]

Ответить на тему
 
Автор Сообщение

admin ®

Пол: Не указан

Стаж: 6 месяца 22 дня

Сообщений: 11520

Создавать темы 30-Янв-2024 12:47

[Цитировать]

Колдун / Shi shen ling / The Yinyang Master (2021) WEBRip [MVO, AD] Производство: Китай
Жанр: боевик, Фентези
Режиссер: Ли Вэйжань
Продюсер: Чжэн Инь, Чжан Цзялу, Чэнь Кофу
Актеры: Чэнь Кунь, Чжоу Сюнь, Уильям Чань, Цюй Чусяо, Ван Ликунь, Ван Цзысюань, Шэнь Юэ, Чжан Цзыфэн, Сунь Хунлэй
Описание:
Чиновника Юань Боя, перевозившего с конвоем груз ценностей, ограбила компания монстров под предводительством получеловека-полумонстра Цинмина. Того самого бывшего служащего Бюро ин-янь, семь лет назад обвинённого в попытке кражи Шкального камня и убийстве коллеги, и из-за этого теперь находящегося в бегах. Взяв в проводницы девушку Шэньле, Боя отправляется в мир монстров, чтобы отыскать вора, а в это время злоумышленники похищают Шкальный камень, но волшебный артефакт проглатывает хорёк — один из фамильяров Цинмина.
Возраст: 16+ (зрителям, достигшим 16 лет)
Дата мировой премьеры: 12 февраля 2021
Дата российской премьеры: Цифровой релиз 19 марта 2021, «Netflix»
Продолжительность: 02:01:23
Качество видео: WEBRip
Перевод: Любительский (многоголосый, закадровый) l MUZOVOZ
Язык озвучки: Русский
Субтитры: Отсутствуют
Реклама: Присутствует аудио и видео вставки рекламы, банер
Видео: XviD, 720x304, 1412 kbps
Аудио: AC3, 2 ch, 192 kbps l Русский

MediaInfo:

Общее
Полное имя : F:\Shi shen ling.(2021)_WEB-DLRip.avi
Формат : AVI
Формат/Информация : Audio Video Interleave
Размер файла : 1,37 Гбайт
Продолжительность : 2 ч. 1 м.
Общий поток : 1 613 Кбит/сек
Программа кодирования : VirtualDubMod 1.5.10.3 | www.virtualdub-fr.org || (build 2550/release)
Библиотека кодирования : VirtualDubMod build 2550/release
Видео
Идентификатор : 0
Формат : MPEG-4 Visual
Профиль формата : Advanced Simple@L5
Настройки формата : BVOP2 / Custom Matrix
Параметр BVOP формата : 2
Параметр QPel формата : Нет
Параметр GMC формата : Без точки перехода
Параметр матрицы формата : Выборочная
Идентификатор кодека : XVID
Идентификатор кодека/Подсказка : XviD
Продолжительность : 2 ч. 1 м.
Битрейт : 1 412 Кбит/сек
Ширина : 720 пикселей
Высота : 304 пикселя
Соотношение сторон : 2,35:1
Частота кадров : 23,976 (24000/1001) кадра/сек
Цветовое пространство : YUV
Субдискретизация насыщенности : 4:2:0
Битовая глубина : 8 бит
Тип развёртки : Прогрессивная
Метод сжатия : С потерями
Бит/(Пиксели*Кадры) : 0.269
Размер потока : 1,20 Гбайт (88%)
Библиотека кодирования : XviD 1.2.1 (UTC 2008-12-04)
Аудио
Идентификатор : 1
Формат : AC-3
Формат/Информация : Audio Coding 3
Коммерческое название : Dolby Digital
Идентификатор кодека : 2000
Продолжительность : 2 ч. 1 м.
Вид битрейта : Постоянный
Битрейт : 192 Кбит/сек
Каналы : 2 канала
Channel layout : L R
Частота : 48,0 КГц
Частота кадров : 31,250 кадров/сек (1536 SPF)
Метод сжатия : С потерями
Размер потока : 167 Мбайт (12%)
Выравнивание : Разделение по промежуткам
Продолжительность промежутка : 42 мс. (1,00 видеокадр)
Время предзагрузки промежутка : 500 мс.
Service kind : Complete Main
Скриншоты:
Все одноименные релизы в КлубеВремя раздачи: с 10:00 до 24:00 (до появления первых 3-5 скачавших)Нажмёте - мне будет очень приятно.
[Профиль] [ЛС]
Показать сообщения:    
Ответить на тему

Текущее время: 20-Апр 20:34

Часовой пояс: UTC ± 0



Вы не можете начинать темы
Вы не можете отвечать на сообщения
Вы не можете редактировать свои сообщения
Вы не можете удалять свои сообщения
Вы не можете голосовать в опросах
Вы не можете прикреплять файлы к сообщениям
Вы не можете скачивать файлы

[  Время выполнения: 0,038 сек  |  MySQL: 0,002 сек (6%) · 3 запр.  |  GZIP выкл  |  Память: 422,29 KB / 1,74 MB / 1,34 MB  |  Лимит: 7 7 6  ]