Гномы. Новогодний беспредел / There's Something in the Barn (2023) скачать торрент

Ответить на тему
 
Автор Сообщение

admin ®

Пол: Не указан

Стаж: 4 месяца 27 дня

Сообщений: 10110

Создавать темы 05-Дек-2023 11:34

[Цитировать]

Гномы. Новогодний беспредел / There's Something in the Barn (2023) скачать торрент - Производство: Норвегия, Финляндия / 74 Entertainment, Charades, Don Films, XYZ Films
Жанр: ужасы, фэнтези, комедия
Режиссер: Магнус Мартенс
Актеры: Амрита Ачария, Таунс Баннер, Клэр Дор, Александр Карлсен Эль Юнусси, Марианн Юнгер, Калле Хеллеван-Ларсен, Йеппе Бек Лаурсен, Пол Монахан, Киран Шах, Мартин Старр
Описание:
В канун Нового года, когда принято палить в воздух из бутылок шампанского, взрывать хлопушки и записывать тиктоки, есть те, кто не любит тиктоки и взрывы. Это амбарные гномы. Они мечтают о миске овсяных хлопьев и тишине. А любого, кто нарушит их покой и забудет покормить, ждёт страшная участь. Они будут иметь дело с целым полчищем гномов, вооруженных садовым инвентарём и парой крайне обидных ругательств.
Возраст: 18+ (зрителям, достигшим 18 лет. запрещено для детей)
Рейтинг MPAA: R (лицам до 17 лет обязательно присутствие взрослого)
Продолжительность: 01:41:21
Качество видео: WEB-DLRip
Перевод: Многоголосый профессиональный
Язык озвучки: Русский
Субтитры: Отсутствуют
Реклама: Присутствует банер
Видео: Xvid, 720х304, ~1537 Kbps
Аудио: AC3, 2 ch, 384 Kbps

MediaInfo:

Общее
Полное имя : S:\Films\2\There's.Something.in.the.Barn.2023.WEB-DLRip..avi
Формат : AVI
Формат/Информация : Audio Video Interleave
Настройки формата : BitmapInfoHeader / WaveFormatEx
Размер файла : 1,37 Гбайт
Продолжительность : 1 ч. 41 м.
Общий поток : 1 931 Кбит/сек
Частота кадров : 24,000 кадра/сек
Программа кодирования : VirtualDubMod 1.10.5ru (build 2550/release)
Библиотека кодирования : VirtualDubMod build 2550/release
Видео
Идентификатор : 0
Формат : MPEG-4 Visual
Профиль формата : Advanced Simple@L5
Настройки формата : BVOP2 / Custom Matrix
Параметр BVOP формата : 2
Параметр QPel формата : Нет
Параметр GMC формата : Без точки перехода
Параметр матрицы формата : Выборочная
Идентификатор кодека : XVID
Идентификатор кодека/Подсказка : XviD
Продолжительность : 1 ч. 41 м.
Битрейт : 1 537 Кбит/сек
Ширина : 720 пикселей
Высота : 304 пикселя
Соотношение сторон : 2,35:1
Частота кадров : 24,000 кадра/сек
Цветовое пространство : YUV
Субдискретизация насыщенности : 4:2:0
Битовая глубина : 8 бит
Тип развёртки : Прогрессивная
Метод сжатия : С потерями
Бит/(Пиксели*Кадры) : 0.293
Размер потока : 1,09 Гбайт (80%)
Библиотека кодирования : XviD 1.2.1 (2008-12-04)
Аудио
Идентификатор : 1
Формат : AC-3
Формат/Информация : Audio Coding 3
Коммерческое название : Dolby Digital
Идентификатор кодека : 2000
Продолжительность : 1 ч. 41 м.
Вид битрейта : Постоянный
Битрейт : 384 Кбит/сек
Каналы : 2 канала
Channel layout : L R
Частота : 48,0 КГц
Частота кадров : 31,250 кадров/сек (1536 SPF)
Метод сжатия : С потерями
Размер потока : 278 Мбайт (20%)
Выравнивание : Разделение по промежуткам
Продолжительность промежутка : 42 мс. (1,00 видеокадр)
Время предзагрузки промежутка : 500 мс.
Service kind : Complete Main
Скриншоты:

Дополнительные скриншоты:

Все одноименные релизы в КлубеВремя раздачи: 24/7 (минимум до появления первых 3-5 скачавших)
[Профиль] [ЛС]
Показать сообщения:    
Ответить на тему

Текущее время: 25-Фев 18:27

Часовой пояс: UTC ± 0



Вы не можете начинать темы
Вы не можете отвечать на сообщения
Вы не можете редактировать свои сообщения
Вы не можете удалять свои сообщения
Вы не можете голосовать в опросах
Вы не можете прикреплять файлы к сообщениям
Вы не можете скачивать файлы

[  Время выполнения: 0,032 сек  |  MySQL: 0,003 сек (9%) · 3 запр.  |  GZIP выкл  |  Память: 422,29 KB / 1,72 MB / 1,32 MB  |  Лимит: 17 16 14  ]