Человек-муравей и Оса: Квантомания / Ant-Man and the Wasp: Quantumania (2023)

Ответить на тему
 
Автор Сообщение

admin ®

Пол: Не указан

Стаж: 7 месяца 26 дня

Сообщений: 11520

Создавать темы 21-Окт-2023 15:36

[Цитировать]

Человек-муравей и Оса: Квантомания / Ant-Man and the Wasp: Quantumania (2023) - Производство: США / Marvel Studios Inc., Truenorth Productions, Walt Disney Pictures
Жанр: фантастика, боевик, комедия, приключения
Режиссер: Пейтон Рид
Актеры: Пол Радд, Эванджелин Лилли, Майкл Дуглас, Мишель Пфайффер, Джонатан Мэйджерс, Кэтрин Ньютон, Билл Мюррей, Кэти О’Брайн, Уильям Джексон Харпер, Джэми Эндрю Катлер
Описание:
О приключениях бывшего мелкого преступника Скотта Лэнга, ставшего обладателем костюма, позволяющего уменьшаться и увеличиваться в размерах. Вместе с напарницей Хоуп ван Дайн, дочерью известного физика и энтомолога Хэнка Пима, разработавшего костюм человека-муравья, Скотт вновь спасает мир от угрозы.
Рейтинг MPAA: PG-13 (детям до 13 лет просмотр нежелателен)
Релиз от: -JokeR-
Продолжительность: 02:04:34
Качество видео: WEBRip
Перевод: Дублированный (MovieDalen, Red Head Sound), Профессиональный многоголосый (LostFilm, TVShows)
Язык озвучки: Русский, Английский
Субтитры: Русские (Forced, Full), Английские
Видео: AVC/H.264, 1920x760, ~4700 Кbps
Аудио 1: AC3, 2 ch, 192 Kbps - Русский (Dub, MovieDalen)
Аудио 2: AC3, 6 ch, 384 Kbps - Русский (Dub, Red Head Sound)
Аудио 3: Е-AC3, 8 ch, 1024 Kbps - Русский (MVO, LostFilm)
Аудио 4: AC3, 6 ch, 384 Kbps - Русский (MVO, TVShows)
Аудио 5: Е-AC3 JOC, 6 ch, 768 Kbps - Английский

MediaInfo:

General
Complete name : Ant-Man.and.the.Wasp.Quantumania.WEBRip.1080p.mkv
Format : Matroska
Format version : Version 4
File size : 6.50 GiB
Duration : 2 h 5 min
Overall bit rate : 7 437 kb/s
Frame rate : 23.976 FPS
Encoded date : 2023-05-21 22:00:47 UTC
Writing application : mkvmerge v73.0.0 ('25 or 6 to 4') 64-bit
Writing library : libebml v1.4.4 + libmatroska v1.7.1
Cover : Yes
Attachments : cover.jpg
Video
ID : 1
Format : AVC
Format/Info : Advanced Video Codec
Format profile : High@L4
Format settings : CABAC / 5 Ref Frames
Format settings, CABAC : Yes
Format settings, Reference fra : 5 frames
Codec ID : V_MPEG4/ISO/AVC
Duration : 2 h 5 min
Bit rate : 4 700 kb/s
Width : 1 920 pixels
Height : 760 pixels
Display aspect ratio : 2.526
Frame rate mode : Constant
Frame rate : 23.976 (24000/1001) FPS
Color space : YUV
Chroma subsampling : 4:2:0
Bit depth : 8 bits
Scan type : Progressive
Bits/(Pixel*Frame) : 0.134
Stream size : 4.10 GiB (63%)
Writing library : x264 core 157 r2935 545de2f
Encoding settings : cabac=1 / ref=5 / deblock=1:0:0 / analyse=0x3:0x113 / me=hex / subme=8 / psy=1 / psy_rd=1.00:0.00 / mixed_ref=1 / me_range=16 / chroma_me=1 / trellis=2 / 8x8dct=1 / cqm=0 / deadzone=21,11 / fast_pskip=1 / chroma_qp_offset=-2 / threads=18 / lookahead_threads=3 / sliced_threads=0 / nr=0 / decimate=1 / interlaced=0 / bluray_compat=0 / constrained_intra=0 / bframes=3 / b_pyramid=2 / b_adapt=1 / b_bias=0 / direct=3 / weightb=1 / open_gop=0 / weightp=2 / keyint=240 / keyint_min=24 / scenecut=40 / intra_refresh=0 / rc_lookahead=50 / rc=2pass / mbtree=1 / bitrate=4700 / ratetol=1.0 / qcomp=0.60 / qpmin=0 / qpmax=69 / qpstep=4 / cplxblur=20.0 / qblur=0.5 / vbv_maxrate=25000 / vbv_bufsize=31250 / nal_hrd=none / filler=0 / ip_ratio=1.40 / aq=1:1.00
Language : Russian
Default : Yes
Forced : No
Color range : Limited
Color primaries : BT.709
Transfer characteristics : BT.709
Matrix coefficients : BT.709
Audio #1
ID : 2
Format : AC-3
Format/Info : Audio Coding 3
Commercial name : Dolby Digital
Codec ID : A_AC3
Duration : 2 h 4 min
Bit rate mode : Constant
Bit rate : 192 kb/s
Channel(s) : 2 channels
Channel layout : L R
Sampling rate : 48.0 kHz
Frame rate : 31.250 FPS (1536 SPF)
Compression mode : Lossy
Stream size : 171 MiB (3%)
Title : Dub (MovieDalen)
Language : Russian
Service kind : Complete Main
Default : Yes
Forced : No
Audio #2
ID : 3
Format : AC-3
Format/Info : Audio Coding 3
Commercial name : Dolby Digital
Codec ID : A_AC3
Duration : 2 h 4 min
Bit rate mode : Constant
Bit rate : 384 kb/s
Channel(s) : 6 channels
Channel layout : L R C LFE Ls Rs
Sampling rate : 48.0 kHz
Frame rate : 31.250 FPS (1536 SPF)
Compression mode : Lossy
Stream size : 342 MiB (5%)
Title : Dub (Red Head Sound)
Language : Russian
Service kind : Complete Main
Default : No
Forced : No
Audio #3
ID : 4
Format : E-AC-3
Format/Info : Enhanced AC-3
Commercial name : Dolby Digital Plus
Codec ID : A_EAC3
Duration : 2 h 4 min
Bit rate mode : Constant
Bit rate : 1 024 kb/s
Channel(s) : 8 channels
Channel layout : L R C LFE Ls Rs Lb Rb
Sampling rate : 48.0 kHz
Frame rate : 31.250 FPS (1536 SPF)
Compression mode : Lossy
Stream size : 912 MiB (14%)
Title : MVO (LostFilm)
Language : Russian
Service kind : Complete Main
Default : No
Forced : No
Audio #4
ID : 5
Format : AC-3
Format/Info : Audio Coding 3
Commercial name : Dolby Digital
Codec ID : A_AC3
Duration : 2 h 4 min
Bit rate mode : Constant
Bit rate : 384 kb/s
Channel(s) : 6 channels
Channel layout : L R C LFE Ls Rs
Sampling rate : 48.0 kHz
Frame rate : 31.250 FPS (1536 SPF)
Compression mode : Lossy
Stream size : 342 MiB (5%)
Title : MVO (TVShows)
Language : Russian
Service kind : Complete Main
Default : No
Forced : No
Audio #5
ID : 6
Format : E-AC-3 JOC
Format/Info : Enhanced AC-3 with Joint Object Coding
Commercial name : Dolby Digital Plus with Dolby Atmos
Codec ID : A_EAC3
Duration : 2 h 4 min
Bit rate mode : Constant
Bit rate : 768 kb/s
Channel(s) : 6 channels
Channel layout : L R C LFE Ls Rs
Sampling rate : 48.0 kHz
Frame rate : 31.250 FPS (1536 SPF)
Compression mode : Lossy
Stream size : 684 MiB (10%)
Title : Оригинал
Language : English
Service kind : Complete Main
Default : No
Forced : No
Complexity index : 16
Number of dynamic objects : 15
Bed channel count : 1 channel
Bed channel configuration : LFE
Text #1
ID : 7
Format : UTF-8
Codec ID : S_TEXT/UTF8
Codec ID/Info : UTF-8 Plain Text
Duration : 2 h 1 min
Bit rate : 0 b/s
Frame rate : 0.001 FPS
Count of elements : 10
Stream size : 470 Bytes (0%)
Title : Forced
Language : Russian
Default : Yes
Forced : No
Text #2
ID : 8
Format : UTF-8
Codec ID : S_TEXT/UTF8
Codec ID/Info : UTF-8 Plain Text
Duration : 2 h 1 min
Bit rate : 66 b/s
Frame rate : 0.211 FPS
Count of elements : 1541
Stream size : 59.3 KiB (0%)
Title : Full
Language : Russian
Default : No
Forced : No
Text #3
ID : 9
Format : UTF-8
Codec ID : S_TEXT/UTF8
Codec ID/Info : UTF-8 Plain Text
Duration : 2 h 1 min
Bit rate : 44 b/s
Frame rate : 0.222 FPS
Count of elements : 1616
Stream size : 39.8 KiB (0%)
Title : Full
Language : English
Default : No
Forced : No
Menu
00:00:00.000 : en:Chapter 01
00:02:41.886 : en:Chapter 02
00:05:34.350 : en:Chapter 03
00:07:56.325 : en:Chapter 04
00:10:10.251 : en:Chapter 05
00:14:29.468 : en:Chapter 06
00:19:58.339 : en:Chapter 07
00:23:06.110 : en:Chapter 08
00:26:38.823 : en:Chapter 09
00:32:35.388 : en:Chapter 10
00:35:00.616 : en:Chapter 11
00:40:31.280 : en:Chapter 12
00:46:52.578 : en:Chapter 13
00:49:04.919 : en:Chapter 14
00:59:21.577 : en:Chapter 15
01:07:42.954 : en:Chapter 16
01:14:10.716 : en:Chapter 17
01:17:20.156 : en:Chapter 18
01:21:00.334 : en:Chapter 19
01:24:25.206 : en:Chapter 20
01:35:33.165 : en:Chapter 21
01:45:07.240 : en:Chapter 22
01:47:55.700 : en:Chapter 23
01:50:06.998 : en:Chapter 24
01:52:44.989 : en:Chapter 25
01:55:10.801 : en:Chapter 26
01:56:31.257 : en:Chapter 27
Скриншоты:
Все одноименные релизы в КлубеВремя раздачи: 24/7 (мультитрекер)
[Профиль] [ЛС]
Показать сообщения:    
Ответить на тему

Текущее время: 24-Май 13:11

Часовой пояс: UTC ± 0



Вы не можете начинать темы
Вы не можете отвечать на сообщения
Вы не можете редактировать свои сообщения
Вы не можете удалять свои сообщения
Вы не можете голосовать в опросах
Вы не можете прикреплять файлы к сообщениям
Вы не можете скачивать файлы

[  Время выполнения: 0,041 сек  |  MySQL: 0,003 сек (7%) · 3 запр.  |  GZIP выкл  |  Память: 422,49 KB / 1,76 MB / 1,38 MB  |  Лимит: 13 10 8  ]