Стражи Галактики. Часть 3 / Guardians of the Galaxy Vol. 3 (2023)

Ответить на тему
 
Автор Сообщение

admin ®

Пол: Не указан

Стаж: 7 месяца 26 дня

Сообщений: 11520

Создавать темы 21-Окт-2023 15:33

[Цитировать]

Стражи Галактики. Часть 3 / Guardians of the Galaxy Vol. 3 (2023)«It's time to face the music»- Производство: США / Marvel Entertainment, Marvel Studios Inc., Troll Court Entertainment
Жанр: фантастика, боевик, комедия, приключения
Режиссер: Джеймс Ганн
Продюсер: Кевин Файги, Виктория Алонсо, Луис Д’Эспозито и др.
Актеры: Крис Пратт, Карен Гиллан, Пом Клементьефф, Дэйв Батиста, Зои Салдана, Чукуди Ивуджи, Брэдли Купер, Уилл Поултер, Вин Дизель, Шон Ганн
Описание:
Питер Квилл никак не может смириться с потерей Гаморы и теперь вместе со Стражами Галактики вынужден отправиться на очередную миссию по защите Вселенной.
Рейтинг MPAA: PG-13 (детям до 13 лет просмотр нежелателен)
Релиз от: Soft-Torrent - торрент игры программы фильмы книги скачать|Kuzmich
Продолжительность: 02:30:02
Качество видео: BDRip 1080p
Перевод: Дублированный (MovieDalen, Red Head Sound)
Язык озвучки: русский, английский
Субтитры: русские (2xForced, 2xFull), английские (Full, SDH)
Видео: AOM/AV1, 1920x1012, ~2907 Kbps
Аудио 1: AC3, 2 ch, 192 Kbps | Русский (Dub, MovieDalen)
Аудио 2: AC3, 6 ch, 448 Kbps | Русский (Dub, Red Head Sound)
Аудио 3: OPUS, 6 ch, 292 Kbps | Английский

MediaInfo:

General
Unique ID : 38214324627020017974710984091948982373 (0x1CBFCFAB7B9EAB573BE480E034AAA065)
Complete name : F:\Torrents\Soft-Torrent - торрент игры программы фильмы книги скачать\Guardians.of.the.Galaxy.Vol.3.2023.BDRip.1080p.AV1.Soft-Torrent - торрент игры программы фильмы книги скачать.mkv
Format : Matroska
Format version : Version 4
File size : 4.03 GiB
Duration : 2 h 30 min
Overall bit rate : 3 843 kb/s
Movie name : Guardians.of.the.Galaxy.Vol.3.2023.BDRip.1080p.AV1.Soft-Torrent - торрент игры программы фильмы книги скачать by Kuzmich
Encoded date : UTC 2023-07-28 15:29:04
Writing application : mkvmerge v72.0.0 ('Minuano (Six-eight)') 64-bit
Writing library : libebml v1.4.4 + libmatroska v1.7.1
Cover : Yes
Attachments : av1an-07-27-2023-00-39-46.txt / cover.jpg / small_cover.jpg
Video
ID : 1
Format : AV1
Format/Info : AOMedia Video 1
Format profile : Main@L4.0
Codec ID : V_AV1
Duration : 2 h 30 min
Bit rate : 2 907 kb/s
Width : 1 920 pixels
Height : 1 012 pixels
Display aspect ratio : 1.897
Frame rate mode : Constant
Frame rate : 23.976 (24000/1001) FPS
Color space : YUV
Chroma subsampling : 4:2:0
Bit depth : 10 bits
Bits/(Pixel*Frame) : 0.062
Stream size : 3.05 GiB (76%)
Title : 1080p AV1
Default : Yes
Forced : No
Color range : Limited
Audio #1
ID : 2
Format : AC-3
Format/Info : Audio Coding 3
Commercial name : Dolby Digital
Codec ID : A_AC3
Duration : 2 h 30 min
Bit rate mode : Constant
Bit rate : 192 kb/s
Channel(s) : 2 channels
Channel layout : L R
Sampling rate : 48.0 kHz
Frame rate : 31.250 FPS (1536 SPF)
Compression mode : Lossy
Stream size : 206 MiB (5%)
Title : Dub [MovieDalen]
Language : Russian
Service kind : Complete Main
Default : Yes
Forced : Yes
Audio #2
ID : 3
Format : AC-3
Format/Info : Audio Coding 3
Commercial name : Dolby Digital
Codec ID : A_AC3
Duration : 2 h 30 min
Bit rate mode : Constant
Bit rate : 448 kb/s
Channel(s) : 6 channels
Channel layout : L R C LFE Ls Rs
Sampling rate : 48.0 kHz
Frame rate : 31.250 FPS (1536 SPF)
Compression mode : Lossy
Stream size : 481 MiB (12%)
Title : Dub [Red Head Sound]
Language : Russian
Service kind : Complete Main
Default : No
Forced : No
Audio #3
ID : 4
Format : Opus
Codec ID : A_OPUS
Duration : 2 h 30 min
Bit rate : 292 kb/s
Channel(s) : 6 channels
Channel layout : L R C Lb Rb LFE
Sampling rate : 48.0 kHz
Frame rate : 50.000 FPS (960 SPF)
Bit depth : 32 bits
Compression mode : Lossy
Stream size : 314 MiB (8%)
Language : English
Default : No
Forced : No
Text #1
ID : 5
Format : UTF-8
Codec ID : S_TEXT/UTF8
Codec ID/Info : UTF-8 Plain Text
Duration : 2 h 25 min
Bit rate : 0 b/s
Frame rate : 0.001 FPS
Count of elements : 10
Stream size : 630 Bytes (0%)
Title : Forced (MovieDalen)
Language : Russian
Default : Yes
Forced : No
Text #2
ID : 6
Format : UTF-8
Codec ID : S_TEXT/UTF8
Codec ID/Info : UTF-8 Plain Text
Duration : 2 h 27 min
Bit rate : 2 b/s
Frame rate : 0.006 FPS
Count of elements : 56
Stream size : 3.19 KiB (0%)
Title : Forced (HDRezka Studio)
Language : Russian
Default : No
Forced : No
Text #3
ID : 7
Format : UTF-8
Codec ID : S_TEXT/UTF8
Codec ID/Info : UTF-8 Plain Text
Duration : 2 h 27 min
Bit rate : 63 b/s
Frame rate : 0.183 FPS
Count of elements : 1623
Stream size : 68.7 KiB (0%)
Title : Full (Off.)
Language : Russian
Default : No
Forced : No
Text #4
ID : 8
Format : UTF-8
Codec ID : S_TEXT/UTF8
Codec ID/Info : UTF-8 Plain Text
Duration : 2 h 29 min
Bit rate : 68 b/s
Frame rate : 0.180 FPS
Count of elements : 1617
Stream size : 75.4 KiB (0%)
Title : Full (Cool Story Blog)
Language : Russian
Default : No
Forced : No
Text #5
ID : 9
Format : UTF-8
Codec ID : S_TEXT/UTF8
Codec ID/Info : UTF-8 Plain Text
Duration : 2 h 27 min
Bit rate : 53 b/s
Frame rate : 0.233 FPS
Count of elements : 2064
Stream size : 57.6 KiB (0%)
Title : Full
Language : English
Default : No
Forced : No
Text #6
ID : 10
Format : UTF-8
Codec ID : S_TEXT/UTF8
Codec ID/Info : UTF-8 Plain Text
Duration : 2 h 29 min
Bit rate : 68 b/s
Frame rate : 0.310 FPS
Count of elements : 2788
Stream size : 74.7 KiB (0%)
Title : SDH
Language : English
Default : No
Forced : No
Menu
00:00:00.000 : en:Chapter 01
00:08:00.646 : en:Chapter 02
00:13:36.732 : en:Chapter 03
00:16:08.676 : en:Chapter 04
00:18:44.623 : en:Chapter 05
00:20:38.237 : en:Chapter 06
00:23:58.770 : en:Chapter 07
00:26:44.978 : en:Chapter 08
00:30:44.592 : en:Chapter 09
00:34:45.625 : en:Chapter 10
00:40:35.683 : en:Chapter 11
00:49:51.738 : en:Chapter 12
00:52:16.299 : en:Chapter 13
00:57:18.143 : en:Chapter 14
00:59:43.454 : en:Chapter 15
01:02:58.483 : en:Chapter 16
01:05:37.892 : en:Chapter 17
01:09:12.314 : en:Chapter 18
01:13:55.722 : en:Chapter 19
01:19:53.955 : en:Chapter 20
01:26:46.784 : en:Chapter 21
01:31:00.037 : en:Chapter 22
01:39:22.957 : en:Chapter 23
01:44:25.926 : en:Chapter 24
01:51:44.823 : en:Chapter 25
01:55:09.277 : en:Chapter 26
01:59:15.940 : en:Chapter 27
02:03:21.394 : en:Chapter 28
02:07:49.453 : en:Chapter 29
02:11:49.151 : en:Chapter 30
02:20:14.406 : en:Chapter 31
02:21:22.474 : en:Chapter 32
02:22:58.736 : en:Chapter 33
02:29:14.070 : en:Chapter 34

Дополнительная информация:

AV1 — видео-кодек, который был выпущен 3 года назад, в марте 2018. Его создавали, чтобы превзойти кодеки предыдущего поколения — HEVC, VP9, H.264 и VP8. За счёт новых оптимизаций, AV1 сжимает видео на 30—50% лучше, чем H.264 или VP8, и до 30% лучше, чем HEVC, при этом — чем выше разрешение, тем эффект сжатия лучше. Разработчики предлагают использование AV1 в связке с аудиокодеком Opus - это лучший аудио-кодек для сжатия surround аудио с высоким качеством (5.1 и больше каналов). Но кодек был выпущен недавно и пока имеет несколько детских болезней. AV1 ещё экспериментальный!
Скриншоты:
Все одноименные релизы в КлубеВремя раздачи: 24/7 (минимум до появления первых 3-5 скачавших)
[Профиль] [ЛС]
Показать сообщения:    
Ответить на тему

Текущее время: 24-Май 13:22

Часовой пояс: UTC ± 0



Вы не можете начинать темы
Вы не можете отвечать на сообщения
Вы не можете редактировать свои сообщения
Вы не можете удалять свои сообщения
Вы не можете голосовать в опросах
Вы не можете прикреплять файлы к сообщениям
Вы не можете скачивать файлы

[  Время выполнения: 0,043 сек  |  MySQL: 0,003 сек (8%) · 3 запр.  |  GZIP выкл  |  Память: 422,49 KB / 1,76 MB / 1,38 MB  |  Лимит: 15 15 12  ]