Реинкарнация. Новая глава / Run Rabbit Run (2023) WEBRip [H.264/1080p]

Ответить на тему
 
Автор Сообщение

admin ®

Пол: Не указан

Стаж: 7 месяца 26 дня

Сообщений: 11520

Создавать темы 20-Окт-2023 09:26

[Цитировать]

Реинкарнация. Новая глава / Run Rabbit Run (2023) WEBRip [H.264/1080p] - Производство: Австралия / Carver Films, VicScreen, XYZ Films
Жанр: ужасы, драма
Режиссер: Даина Рейд
Актеры: Сара Снук, Лили Латорре, Дэймон Херриман, Грета Скакки, Нил Мелвилл, Кэтерин Слэттери, Хьюго Сойса, Наоми Рукавина, Джорджина Найду, Мориал Сперим
Описание:
Сара переживает смерть пожилого отца и не горит желанием общаться с содержащейся в доме престарелых матерью. Однажды её семилетняя дочь Миа находит кролика и вскоре начинает очень странно себя вести, утверждая, что теперь её зовут Элис. А когда женщина навещает страдающую от деменции маму, та сразу же узнаёт внучку, которую она никогда не видела, и называет её Элис.
Возраст: 18+ (зрителям, достигшим 18 лет. запрещено для детей)
Релиз от: karfagen1975|Soft-Torrent - торрент игры программы фильмы книги скачать
Продолжительность: 01:35:58
Качество видео: WEBRip
Перевод: Дублированный (Paragraph Media)
Язык озвучки: Русский, английский
Субтитры: Русские, английские
Видео: AVC/H.264, 1920x856, ~5120 Kbps
Аудио 1: AAC, 6 ch, 512 Kbps | Русский (DUB)
Аудио 2: AAC, 6 ch, 512 Kbps | Английский

MediaInfo:

General
Unique ID : 61022086687749852798457147308489006873 (0x2DE86D28B004E0FCCD8854AAEFBB5F19)
Complete name : Run Rabbit Run (2023) WEB-DL 1080p.mkv
Format : Matroska
Format version : Version 4
File size : 4.11 GiB
Duration : 1 h 35 min
Overall bit rate : 6 129 kb/s
Encoded date : UTC 2023-08-27 06:17:49
Writing application : mkvmerge v75.0.0 ('Goliath') 64-bit
Writing library : libebml v1.4.4 + libmatroska v1.7.1
Video
ID : 1
Format : AVC
Format/Info : Advanced Video Codec
Format profile : High@L4
Format settings : CABAC / 4 Ref Frames
Format settings, CABAC : Yes
Format settings, Reference frames : 4 frames
Codec ID : V_MPEG4/ISO/AVC
Duration : 1 h 35 min
Bit rate : 5 120 kb/s
Width : 1 920 pixels
Height : 856 pixels
Display aspect ratio : 2.25:1
Frame rate mode : Constant
Frame rate : 25.000 FPS
Color space : YUV
Chroma subsampling : 4:2:0
Bit depth : 8 bits
Scan type : Progressive
Bits/(Pixel*Frame) : 0.125
Stream size : 3.42 GiB (83%)
Title : Реинкарнация. Новая глава (2023) WEB-DL 1080p
Writing library : x264 core 152 r2854 e9a5903
Encoding settings : cabac=1 / ref=3 / deblock=1:0:0 / analyse=0x3:0x113 / me=hex / subme=7 / psy=1 / psy_rd=1.00:0.00 / mixed_ref=1 / me_range=16 / chroma_me=1 / trellis=1 / 8x8dct=1 / cqm=0 / deadzone=21,11 / fast_pskip=1 / chroma_qp_offset=-2 / threads=27 / lookahead_threads=4 / sliced_threads=0 / nr=0 / decimate=1 / interlaced=0 / bluray_compat=0 / constrained_intra=0 / bframes=6 / b_pyramid=2 / b_adapt=1 / b_bias=0 / direct=1 / weightb=1 / open_gop=0 / weightp=2 / keyint=50 / keyint_min=26 / scenecut=0 / intra_refresh=0 / rc_lookahead=40 / rc=2pass / mbtree=1 / bitrate=5120 / ratetol=1.0 / qcomp=0.60 / qpmin=0 / qpmax=69 / qpstep=4 / cplxblur=20.0 / qblur=0.5 / vbv_maxrate=7680 / vbv_bufsize=20480 / nal_hrd=none / filler=0 / ip_ratio=1.40 / aq=1:1.00
Language : English
Default : Yes
Forced : No
Audio #1
ID : 2
Format : AAC LC
Format/Info : Advanced Audio Codec Low Complexity
Codec ID : A_AAC-2
Duration : 1 h 35 min
Bit rate : 512 kb/s
Channel(s) : 6 channels
Channel layout : C L R Ls Rs LFE
Sampling rate : 48.0 kHz
Frame rate : 46.875 FPS (1024 SPF)
Compression mode : Lossy
Stream size : 351 MiB (8%)
Title : DUB (Paragraph Media)
Language : Russian
Default : No
Forced : No
Audio #2
ID : 3
Format : AAC LC
Format/Info : Advanced Audio Codec Low Complexity
Codec ID : A_AAC-2
Duration : 1 h 35 min
Bit rate : 512 kb/s
Channel(s) : 6 channels
Channel layout : C L R Ls Rs LFE
Sampling rate : 48.0 kHz
Frame rate : 46.875 FPS (1024 SPF)
Compression mode : Lossy
Stream size : 351 MiB (8%)
Language : English
Default : No
Forced : No
Text #1
ID : 4
Format : UTF-8
Codec ID : S_TEXT/UTF8
Codec ID/Info : UTF-8 Plain Text
Duration : 1 h 29 min
Bit rate : 40 b/s
Count of elements : 731
Stream size : 26.8 KiB (0%)
Language : Russian
Default : No
Forced : No
Text #2
ID : 5
Format : UTF-8
Codec ID : S_TEXT/UTF8
Codec ID/Info : UTF-8 Plain Text
Duration : 1 h 25 min
Bit rate : 29 b/s
Count of elements : 780
Stream size : 18.7 KiB (0%)
Language : English
Default : No
Forced : No
Скриншоты:
Все одноименные релизы в КлубеВремя раздачи: 24/7 (круглосуточно) (минимум до появления первых 3-5 скачавших)
[Профиль] [ЛС]
Показать сообщения:    
Ответить на тему

Текущее время: 24-Май 13:16

Часовой пояс: UTC ± 0



Вы не можете начинать темы
Вы не можете отвечать на сообщения
Вы не можете редактировать свои сообщения
Вы не можете удалять свои сообщения
Вы не можете голосовать в опросах
Вы не можете прикреплять файлы к сообщениям
Вы не можете скачивать файлы

[  Время выполнения: 0,031 сек  |  MySQL: 0,002 сек (8%) · 3 запр.  |  GZIP выкл  |  Память: 422,49 KB / 1,72 MB / 1,34 MB  |  Лимит: 19 15 11  ]