Корабль призраков / Haunting of the Queen Mary (2023) WEB-DL [H.264/720p]

Ответить на тему
 
Автор Сообщение

admin ®

Пол: Не указан

Стаж: 7 месяца 26 дня

Сообщений: 11520

Создавать темы 20-Окт-2023 09:20

[Цитировать]

Корабль призраков / Haunting of the Queen Mary (2023) WEB-DL [H.264/720p]- Производство: США, Великобритания, BCP Asset Management, Creativity Capital, Fulwell 73
Жанр: ужасы, драма
Режиссер: Гари Шор
Актеры: Элис Ив, Нелл Хадсон, Джоэль Фрай, Тим Дауни, Уильям Шокли, Энгус Райт, Джим Пиддок, Ленни Раш, Тиффани Эштон, Дориан Лок
Описание:
Знаменитый трансатлантический лайнер «Королева Мэри» — самый зловещий корабль в истории. У судна, превосходящего по размерам «Титаник», в прошлом полно несчастных случаев и загадочных смертей. Леденящие душу события 1938 года таинственным образом переплетаются с судьбой семьи, поднявшейся на борт в наши дни. Теперь, чтобы спасти своего ребёнка, паре родителей придется познать настоящий ужас и лицом к лицу столкнуться с призраками проклятого корабля.
Возраст: 18+ (зрителям, достигшим 18 лет. запрещено для детей)
Релиз от: seleZen
Продолжительность: 02:04:46
Качество видео: WEB-DL
Перевод: Дублированный (Мосфильм-Мастер)
Язык озвучки: русский, английский
Субтитры: Английские (SDH)
Видео: AVC/H.264, 1280x640, ~1563 Kbps
Аудио 1: AC3, 6 ch, 384 Kbps - русский
Аудио 2: E-AC3, 6 ch, 640 Kbps - английский

MediaInfo:

Общее
Уникальный идентификатор : 237340157942383903514957882902209208000 (0xB28E0D3D6F857428E3FF6A79D6C19EC0)
Полное имя : \Haunting.of.the.Queen.Mary.2023.DUB.WEB-DL.720p.x264.seleZen.mkv
Формат : Matroska
Версия формата : Version 4
Размер файла : 2,26 Гбайт
Продолжительность : 2 ч. 4 м.
Общий поток : 2 588 Кбит/сек
Частота кадров : 23,976 кадра/сек
Название фильма : Haunting.of.the.Queen.Mary.2023.DUB.WEB-DL.720p.x264.seleZen
Дата кодирования : 2023-09-09 06:19:16 UTC
Программа кодирования : mkvmerge v79.0 ('Funeral Pyres') 64-bit
Библиотека кодирования : libebml v1.4.4 + libmatroska v1.7.1
Обложка : Yes
Attachments : cover.jpg / small_cover.jpg
Видео
Идентификатор : 1
Формат : AVC
Формат/Информация : Advanced Video Codec
Профиль формата : High@L3.1
Настройки формата : CABAC / 4 Ref Frames
Параметр CABAC формата : Да
Параметр RefFrames формата : 4 кадра
Идентификатор кодека : V_MPEG4/ISO/AVC
Продолжительность : 2 ч. 4 м.
Вид битрейта : Постоянный
Битрейт : 1 563 Кбит/сек
Номинальный битрейт : 6 000 Кбит/сек
Ширина : 1 280 пикселей
Высота : 640 пикселей
Соотношение сторон : 2,000
Режим частоты кадров : Постоянный
Частота кадров : 23,976 (24000/1001) кадра/сек
Цветовое пространство : YUV
Субдискретизация насыщенности : 4:2:0
Битовая глубина : 8 бит
Тип развёртки : Прогрессивная
Бит/(Пиксели*Кадры) : 0.080
Размер потока : 1,36 Гбайт (60%)
Заголовок : -=DoMiNo=-
Язык : English
Default : Да
Forced : Нет
Цветовой диапазон : Limited
Основные цвета : BT.709
Характеристики трансфера : BT.709
Коэффициенты матрицы : BT.709
Аудио #1
Идентификатор : 2
Формат : AC-3
Формат/Информация : Audio Coding 3
Коммерческое название : Dolby Digital
Идентификатор кодека : A_AC3
Продолжительность : 2 ч. 4 м.
Вид битрейта : Постоянный
Битрейт : 384 Кбит/сек
Каналы : 6 каналов
Channel layout : L R C LFE Ls Rs
Частота : 48,0 КГц
Частота кадров : 31,250 кадров/сек (1536 SPF)
Метод сжатия : С потерями
Размер потока : 343 Мбайт (15%)
Заголовок : Дублированный | Мосфильм-Мастер
Язык : Russian
Service kind : Complete Main
Default : Да
Forced : Нет
Аудио #2
Идентификатор : 3
Формат : E-AC-3
Формат/Информация : Enhanced AC-3
Коммерческое название : Dolby Digital Plus
Идентификатор кодека : A_EAC3
Продолжительность : 2 ч. 4 м.
Вид битрейта : Постоянный
Битрейт : 640 Кбит/сек
Каналы : 6 каналов
Channel layout : L R C LFE Ls Rs
Частота : 48,0 КГц
Частота кадров : 31,250 кадров/сек (1536 SPF)
Метод сжатия : С потерями
Размер потока : 571 Мбайт (25%)
Заголовок : Original
Язык : English
Service kind : Complete Main
Default : Нет
Forced : Нет
Текст
Идентификатор : 4
Формат : UTF-8
Идентификатор кодека : S_TEXT/UTF8
Идентификатор кодека/Информация : UTF-8 Plain Text
Продолжительность : 1 ч. 56 м.
Битрейт : 63 бит/сек
Частота кадров : 0,267 кадр/сек
Count of elements : 1862
Размер потока : 53,9 Кбайт (0%)
Заголовок : English (SDH)
Язык : English
Default : Нет
Forced : Нет
Меню
00:00:00.000 : en:Глава 01
00:05:50.000 : en:Глава 02
00:11:40.000 : en:Глава 03
00:17:30.000 : en:Глава 04
00:23:20.000 : en:Глава 05
00:29:10.000 : en:Глава 06
00:35:00.000 : en:Глава 07
00:40:50.000 : en:Глава 08
00:46:40.000 : en:Глава 09
00:52:30.000 : en:Глава 10
00:58:20.000 : en:Глава 11
01:04:10.000 : en:Глава 12
01:10:00.000 : en:Глава 13
01:15:50.000 : en:Глава 14
01:21:40.000 : en:Глава 15
01:27:30.000 : en:Глава 16
01:33:20.000 : en:Глава 17
01:39:10.000 : en:Глава 18
01:45:00.000 : en:Глава 19
01:50:50.000 : en:Глава 20
01:56:40.000 : en:Глава 21
02:02:30.000 : en:Глава 22
Скриншоты:
Все одноименные релизы в КлубеВремя раздачи: 24/7 (мультитрекер)
[Профиль] [ЛС]
Показать сообщения:    
Ответить на тему

Текущее время: 24-Май 13:27

Часовой пояс: UTC ± 0



Вы не можете начинать темы
Вы не можете отвечать на сообщения
Вы не можете редактировать свои сообщения
Вы не можете удалять свои сообщения
Вы не можете голосовать в опросах
Вы не можете прикреплять файлы к сообщениям
Вы не можете скачивать файлы

[  Время выполнения: 0,041 сек  |  MySQL: 0,003 сек (7%) · 3 запр.  |  GZIP выкл  |  Память: 422,49 KB / 1,75 MB / 1,37 MB  |  Лимит: 15 15 13  ]