Деус / Deus (2022) BDRip [H.264/1080p-LQ] [MVO]

Ответить на тему
 
Автор Сообщение

admin ®

Пол: Не указан

Стаж: 6 месяца 22 дня

Сообщений: 11520

Создавать темы 30-Янв-2024 17:52

[Цитировать]

Деус / Deus (2022) BDRip [H.264/1080p-LQ]- Производство: Великобритания / Highfield Grange Studios, Northfield Rd, Selby
Жанр: фантастика, детектив, приключения
Режиссер: Стив Стоун
Актеры: Клаудия Блэк, Ричард Блэквуд, Филип Дэвис, Лиза Айкхорн, Чарли Макгехан, Дэвид О`Хара, София Петтит, Бранко Томович, Кристал Ю
Описание:
На орбите Марса обнаружена таинственная чёрная сфера. Для расследования отправляется корабль «Ахиллес». После того, как экипаж из шести человек пробуждается от восьмимесячного анабиоза, сфера передает единственное слово на всех известных на Земле языках — Деус.
Релиз от: LORDKILL
Продолжительность: 01:30:31
Качество видео: BDRip 1080p
Перевод: Многоголосый любительский (AlphaProject)
Язык озвучки: Русский
Субтитры: Отсутствуют
Видео: AVC/H.264, 1920x804, ~1438 Kbps
Аудио: AC3, 6 ch, 448 Kbps - Русский

MediaInfo:

[pre][x264] frame I:927   Avg QP:19.33  size: 44577
[x264] frame P:24315 Avg QP:20.29 size: 16614
[x264] frame B:105121 Avg QP:21.51 size: 5049
[x264] consecutive B-frames: 1.3% 1.3% 3.1% 6.9% 18.6% 55.1% 7.0% 1.1% 1.7% 2.6% 1.2%
General
Unique ID : 281622147953537446770119460171233363622 (0xD3DE73E909E27E94E1D5590D05B406A6)
Complete name : E:\КИНО\ДЛЯ РАЗДАЧ\Деус (2022).mkv
Format : Matroska
Format version : Version 4
File size : 1.19 GiB
Duration : 1 h 30 min
Overall bit rate : 1 887 kb/s
Frame rate : 24.000 FPS
Movie name : Деус / Deus (2022) - #LORDKILL#
Encoded date : 2023-09-10 14:59:29 UTC
Writing application : mkvmerge v32.0.0 ('Astral Progressions') 64-bit
Writing library : libebml v1.3.7 + libmatroska v1.5.0
Video
ID : 1
Format : AVC
Format/Info : Advanced Video Codec
Format profile : High@L4.1
Format settings : CABAC / 5 Ref Frames
Format settings, CABAC : Yes
Format settings, Reference : 5 frames
Codec ID : V_MPEG4/ISO/AVC
Duration : 1 h 30 min
Bit rate : 1 438 kb/s
Width : 1 920 pixels
Height : 804 pixels
Display aspect ratio : 2.40:1
Frame rate mode : Constant
Frame rate : 24.000 FPS
Color space : YUV
Chroma subsampling : 4:2:0
Bit depth : 8 bits
Scan type : Progressive
Bits/(Pixel*Frame) : 0.039
Stream size : 931 MiB (76%)
Title : Deus 2022 BluRay ReMux 1080p AVC DTS-HD MA 5.1-MgB
Writing library : x264 core 164 r3095 baee400
Encoding settings : cabac=1 / ref=5 / deblock=1:-3:-3 / analyse=0x3:0x113 / me=umh / subme=10 / psy=1 / psy_rd=1.00:0.25 / mixed_ref=1 / me_range=32 / chroma_me=1 / trellis=2 / 8x8dct=1 / cqm=0 / deadzone=6,6 / fast_pskip=0 / chroma_qp_offset=-4 / threads=17 / lookahead_threads=4 / sliced_threads=0 / nr=0 / decimate=1 / interlaced=0 / bluray_compat=0 / constrained_intra=0 / bframes=10 / b_pyramid=2 / b_adapt=2 / b_bias=0 / direct=3 / weightb=1 / open_gop=0 / weightp=2 / keyint=240 / keyint_min=24 / scenecut=40 / intra_refresh=0 / rc=crf / mbtree=0 / crf=22.5 / qcomp=0.60 / qpmin=0 / qpmax=69 / qpstep=4 / ip_ratio=1.10 / pb_ratio=1.10 / aq=3:0.60
Language : English
Default : Yes
Forced : No
Color range : Limited
Color primaries : BT.709
Transfer characteristics : BT.709
Matrix coefficients : BT.709
Audio
ID : 2
Format : AC-3
Format/Info : Audio Coding 3
Commercial name : Dolby Digital
Codec ID : A_AC3
Duration : 1 h 30 min
Bit rate mode : Constant
Bit rate : 448 kb/s
Channel(s) : 6 channels
Channel layout : L R C LFE Ls Rs
Sampling rate : 48.0 kHz
Frame rate : 31.250 FPS (1536 SPF)
Compression mode : Lossy
Stream size : 290 MiB (24%)
Title : MVO (AlphaProject)
Language : Russian
Service kind : Complete Main
Default : Yes
Forced : No
Menu
00:00:00.000 : Chapter 01
00:08:33.166 : Chapter 02
00:16:54.083 : Chapter 03
00:25:06.375 : Chapter 04
00:34:04.375 : Chapter 05
00:39:20.750 : Chapter 06
00:48:25.916 : Chapter 07
00:57:16.083 : Chapter 08
01:05:20.750 : Chapter 09
01:13:06.291 : Chapter 10
01:20:53.958 : Chapter 11
01:27:39.666 : Chapter 12
Скриншоты:
Все одноименные релизы в КлубеВремя раздачи: 24/7 (круглосуточно) (минимум до появления первых 10 скачавших)
[Профиль] [ЛС]
Показать сообщения:    
Ответить на тему

Текущее время: 20-Апр 19:59

Часовой пояс: UTC ± 0



Вы не можете начинать темы
Вы не можете отвечать на сообщения
Вы не можете редактировать свои сообщения
Вы не можете удалять свои сообщения
Вы не можете голосовать в опросах
Вы не можете прикреплять файлы к сообщениям
Вы не можете скачивать файлы

[  Время выполнения: 0,029 сек  |  MySQL: 0,003 сек (11%) · 3 запр.  |  GZIP выкл  |  Память: 422,29 KB / 1,72 MB / 1,32 MB  |  Лимит: 5 5 5  ]