Адская Дыра / The Haunting of Hell Hole Mine (2023) WEB-DLRip [H.264/1080p] [MVO] [AD]

Ответить на тему
 
Автор Сообщение

admin ®

Пол: Не указан

Стаж: 6 месяца 19 дня

Сообщений: 11520

Создавать темы 30-Янв-2024 17:51

[Цитировать]

Адская Дыра / The Haunting of Hell Hole Mine (2023) WEB-DLRip [H.264/1080p]- Производство: США / Victory of the People Productions
Жанр: триллер, детектив
Режиссер: Пол Коллетт, Тэмми Масса
Актеры: Том Сайзмор, Том Листер мл., Салли Киркленд, Rudy Youngblood, Paul Collett, May Myat Noe, Tori Lane Ross, Dave Fennoy, Caroline Dingwall, Jaedra DiGiammarino
Описание:
Внутри заброшенной золотой шахты скрывается таинственное сверхъестественное существо, призванное индейским шаманом много веков назад, чтобы защитить свое племя. Этот легендарный призрак может появляться во плоти и выдавать себя за кого угодно. Предки Люка со старого Запада поймали его в ловушку в шахте, но с тех пор он преследует их потомков, доводя их до безумия. Теперь племянница Люка, Пони, слегла с "семейным проклятием". Он верит, что при надлежащем психиатрическом лечении она сможет жить нормальной жизнью, но ему нужно срочно заработать денег на дорогостоящее лекарство. С помощью пары друзей Люк отваживается отправиться в заброшенную западную шахту, чтобы попытать счастья. Когда он обнаруживает, что истории о привидениях правдивы, он понимает, что должен противостоять злому духу, прежде чем тот завладеет его разумом.
Продолжительность: 01:45:10
Качество видео: WEB-DLRip (1080p)
Перевод: Многоголосый профессиональный (Синема УС)
Язык озвучки: Русский
Субтитры: Отсутствуют
Реклама: Присутствует баннер.
Видео: AVC/H.264, 1920x816, ~6343 Kbps
Аудио: AC3, 2 ch, 384 Kbps

MediaInfo:

Общее
Полное имя : D:\NNM\Адская Дыра\The.Haunting.of.Hell.Hole.Mine.2023.WEB-DLRip.1080p.mkv
Формат : Matroska
Версия формата : Version 2
Размер файла : 5,04 Гбайт
Продолжительность : 1 ч. 45 м.
Режим общего битрейта : Постоянный
Общий поток : 6 864 Кбит/сек
Программа кодирования : libmatroska 1.4.1
Библиотека кодирования : SolveigMM Matroska Muxer Version 1.0.1904.23
Видео
Идентификатор : 1
Формат : AVC
Формат/Информация : Advanced Video Codec
Профиль формата : High@L4.1
Настройки формата : CABAC / 4 Ref Frames
Параметр CABAC формата : Да
Параметр RefFrames формата : 4 кадра
Идентификатор кодека : V_MPEG4/ISO/AVC
Продолжительность : 1 ч. 45 м.
Вид битрейта : Постоянный
Битрейт : 6 343 Кбит/сек
Номинальный битрейт : 7 000 Кбит/сек
Ширина : 1 920 пикселей
Высота : 816 пикселей
Соотношение сторон : 2,35:1
Режим частоты кадров : Постоянный
Частота кадров : 24,000 кадра/сек
Стандарт вещания : Component
Цветовое пространство : YUV
Субдискретизация насыщенности : 4:2:0
Битовая глубина : 8 бит
Тип развёртки : Прогрессивная
Бит/(Пиксели*Кадры) : 0.169
Размер потока : 4,66 Гбайт (92%)
Библиотека кодирования : x264 core 155
Default : Нет
Forced : Нет
Цветовой диапазон : Limited
Основные цвета : BT.709
Характеристики трансфера : BT.709
Коэффициенты матрицы : BT.709
Аудио
Идентификатор : 2
Формат : AC-3
Формат/Информация : Audio Coding 3
Коммерческое название : Dolby Digital
Идентификатор кодека : A_AC3
Продолжительность : 1 ч. 45 м.
Вид битрейта : Постоянный
Битрейт : 384 Кбит/сек
Каналы : 2 канала
Channel layout : L R
Частота : 48,0 КГц
Частота кадров : 31,250 кадров/сек (1536 SPF)
Метод сжатия : С потерями
Размер потока : 289 Мбайт (6%)
Язык : Russian
Service kind : Complete Main
Default : Нет
Forced : Нет
Скриншоты: Все одноименные релизы в КлубеВремя раздачи: 24/7 (до 10-ти скачавших)
[Профиль] [ЛС]
Показать сообщения:    
Ответить на тему

Текущее время: 17-Апр 16:01

Часовой пояс: UTC ± 0



Вы не можете начинать темы
Вы не можете отвечать на сообщения
Вы не можете редактировать свои сообщения
Вы не можете удалять свои сообщения
Вы не можете голосовать в опросах
Вы не можете прикреплять файлы к сообщениям
Вы не можете скачивать файлы

[  Время выполнения: 0,028 сек  |  MySQL: 0,002 сек (9%) · 3 запр.  |  GZIP выкл  |  Память: 422,29 KB / 1,72 MB / 1,32 MB  |  Лимит: 20 19 17  ]