Новый кошмар Дилана / Dylan's New Nightmare: An Elm Street Fan Film (2023) WEB-DL [H.264/1080p] [DVO]

Ответить на тему
 
Автор Сообщение

admin ®

Пол: Не указан

Стаж: 6 месяца 22 дня

Сообщений: 11520

Создавать темы 30-Янв-2024 17:51

[Цитировать]

Новый кошмар Дилана / Dylan's New Nightmare: An Elm Street Fan Film (2023) WEB-DL [H.264/1080p] - Производство: США, Womp Stomp Films
Жанр: короткометражный, ужасы
Режиссер: Сесил Лэрд
Актеры: Мико Хьюз, Дэйв МакРей, Рон Слоун, Синтия Кания, Кевин Р. Фиппс, Сара Е. Дэвис, Джош Шульц, Ривис Дорси, Кортни Фишелл, Майкл Онак
Описание:
«Новый кошмар Дилана» выступает как неофициальное продолжение Нового кошмара Уэса Крэйвена, действие которого происходит почти через тридцать лет после событий первого фильма. В этом фильме юный сын Хизер Лангенкамп, Дилан Портер (Мико Хьюз), теперь взрослый мужчина, пытающийся пробиться в мир, в котором его воспитали родители – в Голливуде. Мало ли он знает, что злое существо, известное как Фредди Крюгер (Дэйв Макрей), вернулось и жаждет снова ворваться в наш мир через сына его любимой жертвы!"
Релиз от: Alexandr
Продолжительность: 00:35:03
Качество видео: WEB-DL
Перевод: Двуголосый любительский (Yuka_chan & datynet)
Язык озвучки: русский
Субтитры: отсутствуют
Видео: AVC/H.264, 1920x804 (2.40:1), ~4015 Kbps
Аудио: AAC, 2 ch, 265 Kbps - русский

MediaInfo:

Общее
Уникальный идентификатор : 144449505634498834819913901700127267919 (0x6CABF67C607EC4CBF29B29DCDFE21C4F)
Полное имя : G:\Dylan's New Nightmare An Elm Street Fan Film (2023).by.Alexandr.mkv
Формат : Matroska
Версия формата : Version 4
Размер файла : 1,04 Гбайт
Продолжительность : 35 м. 3 с.
Режим общего битрейта : Переменный
Общий поток : 4 257 Кбит/сек
Частота кадров : 23,976 кадра/сек
Название фильма : Dylan's New Nightmare An Elm Street Fan Film (2023).by.Alexandr
Дата кодирования : 2023-09-08 16:09:54 UTC
Программа кодирования : mkvmerge v26.0.0 ('In The Game') 32-bit
Библиотека кодирования : libebml v1.3.6 + libmatroska v1.4.9
Видео
Идентификатор : 1
Формат : AVC
Формат/Информация : Advanced Video Codec
Профиль формата : Main@L4
Настройки формата : CABAC / 3 Ref Frames
Параметр CABAC формата : Да
Параметр RefFrames формата : 3 кадра
Параметр GOP формата : M=1, N=72
Идентификатор кодека : V_MPEG4/ISO/AVC
Продолжительность : 34 м. 52 с.
Вид битрейта : Переменный
Битрейт : 4 014 Кбит/сек
Максимальный битрейт : 12,0 Мбит/сек
Ширина : 1 920 пикселей
Высота : 804 пикселя
Соотношение сторон : 2,40:1
Режим частоты кадров : Постоянный
Частота кадров : 23,976 (24000/1001) кадра/сек
Цветовое пространство : YUV
Субдискретизация насыщенности : 4:2:0
Битовая глубина : 8 бит
Тип развёртки : Прогрессивная
Бит/(Пиксели*Кадры) : 0.108
Размер потока : 1 001 Мбайт (94%)
Default : Да
Forced : Нет
Аудио
Идентификатор : 2
Формат : AAC LC
Формат/Информация : Advanced Audio Codec Low Complexity
Идентификатор кодека : A_AAC-2
Продолжительность : 35 м. 3 с.
Битрейт : 265 Кбит/сек
Каналы : 2 канала
Channel layout : L R
Частота : 48,0 КГц
Частота кадров : 46,875 кадров/сек (1024 SPF)
Метод сжатия : С потерями
Размер потока : 65,7 Мбайт (6%)
Default : Да
Forced : Нет
Скриншоты:
Все одноименные релизы в КлубеВремя раздачи: 24/7 (круглосуточно) (минимум до появления первых 3-5 скачавших)
[Профиль] [ЛС]
Показать сообщения:    
Ответить на тему

Текущее время: 20-Апр 20:41

Часовой пояс: UTC ± 0



Вы не можете начинать темы
Вы не можете отвечать на сообщения
Вы не можете редактировать свои сообщения
Вы не можете удалять свои сообщения
Вы не можете голосовать в опросах
Вы не можете прикреплять файлы к сообщениям
Вы не можете скачивать файлы

[  Время выполнения: 0,037 сек  |  MySQL: 0,003 сек (8%) · 3 запр.  |  GZIP выкл  |  Память: 422,29 KB / 1,74 MB / 1,34 MB  |  Лимит: 6 7 6  ]