Подводный капкан / The Dive (2023) WEB-DL [H.264/1080p]

Ответить на тему
 
Автор Сообщение

admin ®

Пол: Не указан

Стаж: 6 месяца 22 дня

Сообщений: 11520

Создавать темы 30-Янв-2024 17:50

[Цитировать]

Подводный капкан / The Dive (2023) WEB-DL [H.264/1080p] - Производство: Германия / Falkun Films, Augenschein Filmproduktion, Falkun Films
Жанр: триллер
Режиссер: Максимилиан Эрленвайн
Актеры: Луиза Краузе, Софи Лоу
Описание:
Сестры-дайверы Дрю и Мэй совершают традиционное совместное погружение в новом месте, в отдаленном полудиком уголке, и даже не представляют, с чем им придется столкнуться. Камнепад заточает Мэй в смертельную подводную ловушку, и времени нет: кислород на исходе, паника нарастает… Дрю может рассчитывать только на себя и вынуждена принимать роковые решения, чтобы попытаться спасти сестру любой ценой. На глубине страха остается только надежда.
Возраст: 16+ (зрителям, достигшим 16 лет)
Релиз от: Soft-Torrent - торрент игры программы фильмы книги скачать
Продолжительность: 01:31:05
Качество видео: WEB-DL (1080p)
Перевод: Дублированный (Line)
Язык озвучки: Русский, английский
Субтитры: Английские (full, SDH)
Видео: AVC/H.264, 1920x800, ~8271 Kbps
Аудио 1: AC3, 2 ch, 256 Кbps | Русский
Аудио 2: E-AC3, 6 ch, 640 Кbps | Английский

MediaInfo:

Общее
Уникальный идентификатор : 237251596655358047909947631655450489337 (0xB27CFED4D7C2EC08A8916755447EB1F9)
Полное имя : D:\NNM\Подводный капкан\The.Dive.2023.AMZN.WEB-DL.1080p.Soft-Torrent - торрент игры программы фильмы книги скачать.mkv
Формат : Matroska
Версия формата : Version 4
Размер файла : 5,95 Гбайт
Продолжительность : 1 ч. 31 м.
Общий поток : 9 353 Кбит/сек
Дата кодирования : UTC 2023-09-09 04:26:20
Программа кодирования : mkvmerge v6.9.1 ('Blue Panther') 32bit built on Apr 18 2014 18:15:44
Библиотека кодирования : libebml v1.3.0 + libmatroska v1.4.1
Видео
Идентификатор : 1
Формат : AVC
Формат/Информация : Advanced Video Codec
Профиль формата : High@L4
Настройки формата : CABAC / 4 Ref Frames
Параметр CABAC формата : Да
Параметр RefFrames формата : 4 кадра
Идентификатор кодека : V_MPEG4/ISO/AVC
Продолжительность : 1 ч. 31 м.
Вид битрейта : Постоянный
Битрейт : 8 271 Кбит/сек
Номинальный битрейт : 10 000 Кбит/сек
Ширина : 1 920 пикселей
Высота : 800 пикселей
Соотношение сторон : 2,40:1
Режим частоты кадров : Постоянный
Частота кадров : 23,976 (24000/1001) кадра/сек
Цветовое пространство : YUV
Субдискретизация насыщенности : 4:2:0
Битовая глубина : 8 бит
Тип развёртки : Прогрессивная
Бит/(Пиксели*Кадры) : 0.225
Размер потока : 5,26 Гбайт (88%)
Default : Да
Forced : Нет
Цветовой диапазон : Limited
Основные цвета : BT.709
Характеристики трансфера : BT.709
Коэффициенты матрицы : BT.709
Аудио #1
Идентификатор : 2
Формат : AC-3
Формат/Информация : Audio Coding 3
Коммерческое название : Dolby Digital
Идентификатор кодека : A_AC3
Продолжительность : 1 ч. 31 м.
Вид битрейта : Постоянный
Битрейт : 256 Кбит/сек
Каналы : 2 канала
Channel layout : L R
Частота : 48,0 КГц
Частота кадров : 31,250 кадров/сек (1536 SPF)
Метод сжатия : С потерями
Размер потока : 167 Мбайт (3%)
Заголовок : Dub. - Line
Язык : Russian
Service kind : Complete Main
Default : Да
Forced : Нет
Аудио #2
Идентификатор : 3
Формат : E-AC-3
Формат/Информация : Enhanced AC-3
Коммерческое название : Dolby Digital Plus
Идентификатор кодека : A_EAC3
Продолжительность : 1 ч. 31 м.
Вид битрейта : Постоянный
Битрейт : 640 Кбит/сек
Каналы : 6 каналов
Channel layout : L R C LFE Ls Rs
Частота : 48,0 КГц
Частота кадров : 31,250 кадров/сек (1536 SPF)
Метод сжатия : С потерями
Размер потока : 417 Мбайт (7%)
Язык : English
Service kind : Complete Main
Default : Нет
Forced : Нет
Текст #1
Идентификатор : 4
Формат : UTF-8
Идентификатор кодека : S_TEXT/UTF8
Идентификатор кодека/Информация : UTF-8 Plain Text
Заголовок : Full
Язык : English
Default : Нет
Forced : Нет
Текст #2
Идентификатор : 5
Формат : UTF-8
Идентификатор кодека : S_TEXT/UTF8
Идентификатор кодека/Информация : UTF-8 Plain Text
Заголовок : SDH
Язык : English
Default : Нет
Forced : Нет
Скриншоты:
Все одноименные релизы в КлубеВремя раздачи: 24/7 (до 10-ти скачавших)
[Профиль] [ЛС]
Показать сообщения:    
Ответить на тему

Текущее время: 20-Апр 20:04

Часовой пояс: UTC ± 0



Вы не можете начинать темы
Вы не можете отвечать на сообщения
Вы не можете редактировать свои сообщения
Вы не можете удалять свои сообщения
Вы не можете голосовать в опросах
Вы не можете прикреплять файлы к сообщениям
Вы не можете скачивать файлы

[  Время выполнения: 0,041 сек  |  MySQL: 0,003 сек (8%) · 3 запр.  |  GZIP выкл  |  Память: 422,29 KB / 1,74 MB / 1,36 MB  |  Лимит: 5 5 5  ]