Вычитание / Subtraction (2022) WEB-DL [H.264/1080p] [MVO]

Ответить на тему
 
Автор Сообщение

admin ®

Пол: Не указан

Стаж: 6 месяца 22 дня

Сообщений: 11520

Создавать темы 30-Янв-2024 17:50

[Цитировать]

Вычитание / Subtraction (2022) WEB-DL [H.264/1080p]- Производство: Франция, Иран / Iranian Independents, World Wonder Ring Stardom
Жанр: драма, детектив
Режиссер: Мани Хагиги
Актеры: Таране Алидости, Али Багери, Вахид Агапур, Сохейла Разави, Саид Чангизян, Гильда Вишки, Фархам Азизи, Эсмаил Пур Реза, Навид Мохаммадзаде
Описание:
Фарзане и её муж Джалал живут в Тегеране. Размеренная жизнь семьи закончится, когда однажды они случайно встретят на улице своих двойников.
Продолжительность: 01:48:04
Качество видео: WEB-DL (1080p)
Перевод: Многоголосый профессиональный (Jaskier )
Язык озвучки: Русский, фарси
Субтитры: Английские
Видео: AVC/H.264, 1916x968, ~6625 Kbps
Аудио #1: AC3, 6 ch, 384 Kbps - Русский
Аудио #2: AC3, 6 ch, 384 Kbps - Фарси

MediaInfo:

Общее
Уникальный идентификатор : 315123457674718787505215963262817142934 (0xED1292013E11FA0728ED71A0B4E40896)
Полное имя : D:\NNM\Вычитание\Subtraction.2023.1080p_от New-Team.mkv
Формат : Matroska
Версия формата : Version 4
Размер файла : 5,58 Гбайт
Продолжительность : 1 ч. 48 м.
Общий поток : 7 395 Кбит/сек
Название фильма : Subtraction.2023.1080p_от New-Team
Дата кодирования : UTC 2023-09-09 05:18:35
Программа кодирования : mkvmerge v59.0.0 ('Shining Star') 64-bit
Библиотека кодирования : libebml v1.4.2 + libmatroska v1.6.4
Видео
Идентификатор : 1
Формат : AVC
Формат/Информация : Advanced Video Codec
Профиль формата : High@L4
Настройки формата : CABAC / 4 Ref Frames
Параметр CABAC формата : Да
Параметр RefFrames формата : 4 кадра
Идентификатор кодека : V_MPEG4/ISO/AVC
Продолжительность : 1 ч. 48 м.
Битрейт : 6 625 Кбит/сек
Ширина : 1 916 пикселей
Высота : 968 пикселей
Соотношение сторон : 1,979
Режим частоты кадров : Постоянный
Частота кадров : 24,000 кадра/сек
Цветовое пространство : YUV
Субдискретизация насыщенности : 4:2:0
Битовая глубина : 8 бит
Тип развёртки : Прогрессивная
Бит/(Пиксели*Кадры) : 0.149
Размер потока : 5,00 Гбайт (90%)
Default : Да
Forced : Нет
Цветовой диапазон : Limited
Основные цвета : BT.709
Характеристики трансфера : BT.709
Коэффициенты матрицы : BT.709
Аудио #1
Идентификатор : 2
Формат : AC-3
Формат/Информация : Audio Coding 3
Коммерческое название : Dolby Digital
Идентификатор кодека : A_AC3
Продолжительность : 1 ч. 48 м.
Вид битрейта : Постоянный
Битрейт : 384 Кбит/сек
Каналы : 6 каналов
Channel layout : L R C LFE Ls Rs
Частота : 48,0 КГц
Частота кадров : 31,250 кадров/сек (1536 SPF)
Метод сжатия : С потерями
Размер потока : 297 Мбайт (5%)
Заголовок : MVO - Jaskier
Язык : Russian
Service kind : Complete Main
Default : Да
Forced : Нет
Аудио #2
Идентификатор : 3
Формат : AC-3
Формат/Информация : Audio Coding 3
Коммерческое название : Dolby Digital
Идентификатор кодека : A_AC3
Продолжительность : 1 ч. 48 м.
Вид битрейта : Постоянный
Битрейт : 384 Кбит/сек
Каналы : 6 каналов
Channel layout : L R C LFE Ls Rs
Частота : 48,0 КГц
Частота кадров : 31,250 кадров/сек (1536 SPF)
Метод сжатия : С потерями
Размер потока : 297 Мбайт (5%)
Заголовок : Original
Язык : Persian
Service kind : Complete Main
Default : Нет
Forced : Нет
Текст
Идентификатор : 4
Формат : UTF-8
Идентификатор кодека : S_TEXT/UTF8
Идентификатор кодека/Информация : UTF-8 Plain Text
Продолжительность : 1 ч. 45 м.
Битрейт : 35 бит/сек
Count of elements : 1010
Размер потока : 27,6 Кбайт (0%)
Заголовок : [full]
Язык : English
Default : Нет
Forced : Нет
Скриншоты: Все одноименные релизы в КлубеВремя раздачи: 24/7 (до 10-ти скачавших)
[Профиль] [ЛС]
Показать сообщения:    
Ответить на тему

Текущее время: 20-Апр 20:00

Часовой пояс: UTC ± 0



Вы не можете начинать темы
Вы не можете отвечать на сообщения
Вы не можете редактировать свои сообщения
Вы не можете удалять свои сообщения
Вы не можете голосовать в опросах
Вы не можете прикреплять файлы к сообщениям
Вы не можете скачивать файлы

[  Время выполнения: 0,038 сек  |  MySQL: 0,003 сек (9%) · 3 запр.  |  GZIP выкл  |  Память: 422,29 KB / 1,74 MB / 1,34 MB  |  Лимит: 5 5 5  ]