Они клонировали Тайрона / They Cloned Tyrone (2023) WEB-DLRip [H.264/720p-LQ] [MVO]

Ответить на тему
 
Автор Сообщение

admin ®

Пол: Не указан

Стаж: 6 месяца 22 дня

Сообщений: 11520

Создавать темы 30-Янв-2024 17:50

[Цитировать]

Они клонировали Тайрона / They Cloned Tyrone (2023) WEB-DLRip [H.264/720p-LQ]- Производство: США / Federal Films, MACRO, Made With Love Media
Жанр: фантастика, боевик, триллер, комедия, детектив
Режиссер: Джуэл Тейлор
Продюсер: Джейми Фокс, Чарльз Кинг, Стивен «Доктор» Лав и др.
Актеры: Джейми Фокс, Кифер Сазерленд, Дэвид Алан Грир, Джон Бойега, Тейона Паррис, Джошуа Микель, Джейсон Бёрки, Дж. Альфонс Николсон, Остин Фриман, Джеймс Моусес Блэк
Описание:
Фильм рассказывает историю трех людей, которые случайно встречаются и объединяют свои силы, чтобы расследовать коварный заговор властей города. Все начинается со странных происшествий, которые происходят в городе. Люди исчезают, появляются таинственные сигналы на радио, и кажется, что в городе происходит что-то зловещее.
Рейтинг MPAA: R (лицам до 17 лет обязательно присутствие взрослого)
Релиз от: Jolan
Продолжительность: 02:04:10
Качество видео: WEB-DLRip
Перевод: Многоголосый (HDRezka), Дублированный (Postmodern)
Язык озвучки: Русский, Украинский
Субтитры: отсутствуют
Видео: AVC/H.264, 1280x640, ~3000 Kbps
Аудио 1: AAC, 6 ch, 256 Kbps | Русский, MVO (HDRezka Studio)
Аудио 2: AAC, 6 ch, 256 Kbps | Украинский, Dub (Postmodern)

MediaInfo:

General
Complete name : C:\Users\User\Desktop\KPK\They Cloned Tyrone (2023) WEB-DLRip.720p.Jolan.mp4
Format : MPEG-4
Format profile : Base Media
Codec ID : isom (isom)
File size : 3.05 GiB
Duration : 2 h 4 min
Overall bit rate mode : Variable
Overall bit rate : 3 516 kb/s
Frame rate : 24.000 FPS
Encoded date : 2023-09-09 06:37:28 UTC
Tagged date : 2023-09-09 06:37:28 UTC
Writing application : By Jolan
Video
ID : 1
Format : AVC
Format/Info : Advanced Video Codec
Format profile : High@L4.1
Format settings : CABAC / 10 Ref Frames
Format settings, CABAC : Yes
Format settings, Reference frames : 10 frames
Codec ID : avc1
Codec ID/Info : Advanced Video Coding
Duration : 2 h 4 min
Bit rate : 3 000 kb/s
Maximum bit rate : 18.1 Mb/s
Width : 1 280 pixels
Height : 640 pixels
Display aspect ratio : 2.000
Frame rate mode : Constant
Frame rate : 24.000 FPS
Color space : YUV
Chroma subsampling : 4:2:0
Bit depth : 8 bits
Scan type : Progressive
Bits/(Pixel*Frame) : 0.153
Stream size : 2.60 GiB (85%)
Writing library : x264 core 164 r3107 a8b68eb
Encoding settings : cabac=1 / ref=10 / deblock=1:-2:-2 / analyse=0x3:0x133 / me=umh / subme=11 / psy=1 / psy_rd=1.00:0.15 / mixed_ref=1 / me_range=32 / chroma_me=1 / trellis=2 / 8x8dct=1 / cqm=0 / deadzone=21,11 / fast_pskip=0 / chroma_qp_offset=-3 / threads=20 / lookahead_threads=3 / sliced_threads=0 / nr=0 / decimate=1 / interlaced=0 / bluray_compat=0 / constrained_intra=0 / bframes=8 / b_pyramid=2 / b_adapt=2 / b_bias=0 / direct=3 / weightb=1 / open_gop=0 / weightp=2 / keyint=240 / keyint_min=24 / scenecut=40 / intra_refresh=0 / rc_lookahead=60 / rc=2pass / mbtree=1 / bitrate=3000 / ratetol=1.0 / qcomp=0.60 / qpmin=0 / qpmax=69 / qpstep=4 / cplxblur=20.0 / qblur=0.5 / vbv_maxrate=62500 / vbv_bufsize=78125 / nal_hrd=none / filler=0 / ip_ratio=1.40 / aq=1:1.00
Encoded date : 2023-09-09 06:20:36 UTC
Tagged date : 2023-09-09 06:38:14 UTC
Codec configuration box : avcC
Audio #1
ID : 2
Format : AAC LC
Format/Info : Advanced Audio Codec Low Complexity
Codec ID : mp4a-40-2
Duration : 2 h 4 min
Bit rate mode : Variable
Bit rate : 256 kb/s
Maximum bit rate : 269 kb/s / 256 kb/s
Channel(s) : 6 channels
Channel layout : C L R Ls Rs LFE
Sampling rate : 48.0 kHz
Frame rate : 46.875 FPS (1024 SPF)
Compression mode : Lossy
Stream size : 227 MiB (7%)
Title : MVO - HDRezka Studio / MVO - HDRezka Studio
Language : Russian
Default : Yes
Alternate group : 1
Encoded date : 2023-09-09 06:25:53 UTC
Tagged date : 2023-09-09 06:38:14 UTC
Audio #2
ID : 3
Format : AAC LC
Format/Info : Advanced Audio Codec Low Complexity
Codec ID : mp4a-40-2
Duration : 2 h 4 min
Source duration : 2 h 4 min
Bit rate mode : Variable
Bit rate : 256 kb/s
Maximum bit rate : 273 kb/s / 256 kb/s
Channel(s) : 6 channels
Channel layout : C L R Ls Rs LFE
Sampling rate : 48.0 kHz
Frame rate : 46.875 FPS (1024 SPF)
Compression mode : Lossy
Stream size : 227 MiB (7%)
Source stream size : 227 MiB (7%)
Default : Yes
Alternate group : 1
Tagged date : 2023-09-09 06:38:14 UTC
Скриншоты:
Все одноименные релизы в КлубеВремя раздачи: 24/7 (круглосуточно) (минимум до появления первых 3-5 скачавших)
[Профиль] [ЛС]
Показать сообщения:    
Ответить на тему

Текущее время: 20-Апр 20:30

Часовой пояс: UTC ± 0



Вы не можете начинать темы
Вы не можете отвечать на сообщения
Вы не можете редактировать свои сообщения
Вы не можете удалять свои сообщения
Вы не можете голосовать в опросах
Вы не можете прикреплять файлы к сообщениям
Вы не можете скачивать файлы

[  Время выполнения: 0,037 сек  |  MySQL: 0,003 сек (8%) · 3 запр.  |  GZIP выкл  |  Память: 422,29 KB / 1,74 MB / 1,36 MB  |  Лимит: 5 6 6  ]